Skip to content
New issue

Have a question about this project? Sign up for a free GitHub account to open an issue and contact its maintainers and the community.

By clicking “Sign up for GitHub”, you agree to our terms of service and privacy statement. We’ll occasionally send you account related emails.

Already on GitHub? Sign in to your account

Handbrake stops between items in queue #2119

Open
pjs128 opened this issue May 24, 2019 · 3 comments

Comments

3 participants
@pjs128
Copy link

commented May 24, 2019

Description of the problem

On Mac OS 10.13.6 Handbrake stops between each item in the queue. I used to be able to lock the screen and leave the machine work overnight but now, hours later, when I unlock the machine the next item in the queue immediately starts without any action in Handbrake. By the time i bring handbrake into focus after logging in the progress is at 0.2 % on the first pass of the next item.

I have all power saving elements shut off so that the hard drive and processor stay active.

This is very similar to the problem described in #1724

HandBrake version (e.g., 1.0.0)

1.2.2

Operating system and version (e.g., Ubuntu 18.04 LTS, macOS 10.14 Mojave, Windows 10 1809)

macOS 10.13.6

Error message text or screenshot

No error message

HandBrake Activity Log (see https://handbrake.fr/docs/en/latest/help/activity-log.html)

2 logs. the one before it stops and the one that immediately starts when i unlock the screen and login. Each is separated by ~~~

HandBrake Activity Log for Session: 2019-05-24T10:31:48Z
Handbrake Version: 1.2.2 (2019022300)
House - S3E22.m4v
Preset: HQ 1080p30 Surround
[06:31:48] macgui: QueueCore prevented sleep
[06:31:48] macgui: QueueCore scanning specifically for title: 1
[06:31:48] CPU: Intel(R) Core(TM) i7-4790K CPU @ 4.00GHz
[06:31:48]  - Intel microarchitecture Haswell
[06:31:48]  - logical processor count: 8
[06:31:48] hb_scan: path=/Volumes/LaCie/Media Rips/House M.D./Season 3/House - S3E22.mkv, title_index=1
udfread ERROR: ECMA 167 Volume Recognition failed
disc.c:323: failed opening UDF image /Volumes/LaCie/Media Rips/House M.D./Season 3/House - S3E22.mkv
disc.c:424: error opening file BDMV/index.bdmv
disc.c:424: error opening file BDMV/BACKUP/index.bdmv
[06:31:48] bd: not a bd - trying as a stream/file instead
libdvdnav: Using dvdnav version 6.0.0
libdvdread:DVDOpenFileUDF:UDFFindFile /VIDEO_TS/VIDEO_TS.IFO failed
libdvdread:DVDOpenFileUDF:UDFFindFile /VIDEO_TS/VIDEO_TS.BUP failed
libdvdread: Can't open file VIDEO_TS.IFO.
libdvdnav: vm: failed to read VIDEO_TS.IFO
[06:31:48] dvd: not a dvd - trying as a stream/file instead
Input #0, matroska,webm, from '/Volumes/LaCie/Media Rips/House M.D./Season 3/House - S3E22.mkv':
  Metadata:
    title           : House - Season 3 Disc 5
    encoder         : libmakemkv v1.14.2 (1.3.5/1.4.7) darwin(x64-release)
    creation_time   : 2019-04-01T23:34:41.000000Z
  Duration: 00:43:39.16, start: 0.000000, bitrate: 23720 kb/s
    Chapter #0:0: start 0.000000, end 95.845750
    Metadata:
      title           : Chapter 01
    Chapter #0:1: start 95.845750, end 654.028375
    Metadata:
      title           : Chapter 02
    Chapter #0:2: start 654.028375, end 1091.006583
    Metadata:
      title           : Chapter 03
    Chapter #0:3: start 1091.006583, end 1660.909250
    Metadata:
      title           : Chapter 04
    Chapter #0:4: start 1660.909250, end 2577.449875
    Metadata:
      title           : Chapter 05
    Chapter #0:5: start 2577.449875, end 2619.158208
    Metadata:
      title           : Chapter 06
    Stream #0:0(eng): Video: h264 (High), yuv420p(progressive), 1920x1080 [SAR 1:1 DAR 16:9], 23.98 fps, 23.98 tbr, 1k tbn, 47.95 tbc
    Metadata:
      BPS-eng         : 22879254
      DURATION-eng    : 00:43:39.158208333
      NUMBER_OF_FRAMES-eng: 62797
      NUMBER_OF_BYTES-eng: 7490547933
      SOURCE_ID-eng   : 001011
      _STATISTICS_WRITING_APP-eng: MakeMKV v1.14.2 darwin(x64-release)
      _STATISTICS_WRITING_DATE_UTC-eng: 2019-04-01 23:34:41
      _STATISTICS_TAGS-eng: BPS DURATION NUMBER_OF_FRAMES NUMBER_OF_BYTES SOURCE_ID
    Stream #0:1(eng): Audio: dts (DTS), 48000 Hz, 5.1(side), fltp, 768 kb/s (default)
    Metadata:
      title           : Surround 5.1
      BPS-eng         : 768000
      DURATION-eng    : 00:43:39.168000000
      NUMBER_OF_FRAMES-eng: 245547
      NUMBER_OF_BYTES-eng: 251440128
      SOURCE_ID-eng   : 001101
      _STATISTICS_WRITING_APP-eng: MakeMKV v1.14.2 darwin(x64-release)
      _STATISTICS_WRITING_DATE_UTC-eng: 2019-04-01 23:34:41
      _STATISTICS_TAGS-eng: BPS DURATION NUMBER_OF_FRAMES NUMBER_OF_BYTES SOURCE_ID
    Stream #0:2(eng): Subtitle: hdmv_pgs_subtitle, 1920x1080
    Metadata:
      BPS-eng         : 71799
      DURATION-eng    : 00:42:51.423020833
      NUMBER_OF_FRAMES-eng: 1375
      NUMBER_OF_BYTES-eng: 23078272
      SOURCE_ID-eng   : 001201
      _STATISTICS_WRITING_APP-eng: MakeMKV v1.14.2 darwin(x64-release)
      _STATISTICS_WRITING_DATE_UTC-eng: 2019-04-01 23:34:41
      _STATISTICS_TAGS-eng: BPS DURATION NUMBER_OF_FRAMES NUMBER_OF_BYTES SOURCE_ID
[06:31:48] scan: decoding previews for title 1
[06:31:48] scan: audio 0x1: dca, rate=48000Hz, bitrate=768000 English (DTS) (5.1 ch)
[06:31:50] scan: 10 previews, 1920x1080, 23.976 fps, autocrop = 0/0/0/0, aspect 16:9, PAR 1:1
[06:31:50] libhb: scan thread found 1 valid title(s)
[06:31:50] macgui: QueueCore scan done
[06:31:50] 1 job(s) to process
[06:31:50] starting job
[06:31:50] macgui: QueueCore started encoding House - S3E22.m4v
[06:31:50] macgui: QueueCore with preset HQ 1080p30 Surround
[06:31:50] decomb filter thread started for segment 0
[06:31:50] decomb filter thread started for segment 1
[06:31:50] decomb filter thread started for segment 2
[06:31:50] decomb filter thread started for segment 3
[06:31:50] decomb filter thread started for segment 4
[06:31:50] decomb filter thread started for segment 5
[06:31:50] decomb filter thread started for segment 6
[06:31:50] decomb filter thread started for segment 7
[06:31:50] decomb check thread started for segment 0
[06:31:50] decomb check thread started for segment 1
[06:31:50] decomb check thread started for segment 2
[06:31:50] decomb check thread started for segment 3
[06:31:50] decomb check thread started for segment 4
[06:31:50] decomb check thread started for segment 5
[06:31:50] decomb check thread started for segment 6
[06:31:50] decomb check thread started for segment 7
[06:31:50] mask filter thread started for segment 0
[06:31:50] mask filter thread started for segment 1
[06:31:50] mask filter thread started for segment 2
[06:31:50] mask filter thread started for segment 3
[06:31:50] mask filter thread started for segment 4
[06:31:50] mask filter thread started for segment 5
[06:31:50] mask filter thread started for segment 6
[06:31:50] mask filter thread started for segment 7
[06:31:50] mask erode thread started for segment 0
[06:31:50] mask erode thread started for segment 1
[06:31:50] mask erode thread started for segment 2
[06:31:50] mask erode thread started for segment 3
[06:31:50] mask erode thread started for segment 4
[06:31:50] mask erode thread started for segment 5
[06:31:50] mask erode thread started for segment 6
[06:31:50] mask erode thread started for segment 7
[06:31:50] mask dilate thread started for segment 0
[06:31:50] mask dilate thread started for segment 1
[06:31:50] mask dilate thread started for segment 2
[06:31:50] mask dilate thread started for segment 3
[06:31:50] mask dilate thread started for segment 4
[06:31:50] mask dilate thread started for segment 5
[06:31:50] mask dilate thread started for segment 6
[06:31:50] mask dilate thread started for segment 7
[06:31:50] job configuration:
[06:31:50]  * source
[06:31:50]    + /Volumes/LaCie/Media Rips/House M.D./Season 3/House - S3E22.mkv
[06:31:50]    + title 1, chapter(s) 1 to 6
[06:31:50]    + container: matroska,webm
[06:31:50]    + data rate: 23720 kbps
[06:31:50]  * destination
[06:31:50]    + /Volumes/LaCie/Media Rips/House M.D./Season 3/House - S3E22.m4v
[06:31:50]    + container: MPEG-4 (libavformat)
[06:31:50]      + align initial A/V stream timestamps
[06:31:50]      + chapter markers
[06:31:50]  * video track
[06:31:50]    + decoder: h264
[06:31:50]    + filters
[06:31:50] yadif thread started for segment 4
[06:31:50] yadif thread started for segment 2
[06:31:50] yadif thread started for segment 1
[06:31:50] yadif thread started for segment 5
[06:31:50] yadif thread started for segment 6
[06:31:50] yadif thread started for segment 0
[06:31:50] yadif thread started for segment 7
[06:31:50] yadif thread started for segment 3
[06:31:50]      + Comb Detect (mode=3:spatial-metric=2:motion-thresh=1:spatial-thresh=1:filter-mode=2:block-thresh=40:block-width=16:block-height=16)
[06:31:50]      + Decomb (mode=39)
[06:31:50]      + Framerate Shaper (mode=2:rate=27000000/900000)
[06:31:50]        + frame rate: 23.976 fps -> peak rate limited to 30.000 fps
[06:31:50]      + Crop and Scale (width=1920:height=1080:crop-top=0:crop-bottom=0:crop-left=0:crop-right=0)
[06:31:50]        + source: 1920 * 1080, crop (0/0/0/0): 1920 * 1080, scale: 1920 * 1080
[06:31:50]    + Output geometry
[06:31:50]      + storage dimensions: 1920 x 1080
[06:31:50]      + pixel aspect ratio: 1 : 1
[06:31:50]      + display dimensions: 1920 x 1080
[06:31:50]  * Foreign Audio Search: Render/Burn-in, Forced Only
[06:31:50]    + subtitle, English [PGS] (track 0, id 0x2, Picture)
[06:31:50] sync: expecting 62796 video frames
[06:32:13] macgui: trying to open a folder or file
[06:32:13] macgui: ScanCore scanning titles with a duration of 10 seconds or more
[06:32:13] CPU: Intel(R) Core(TM) i7-4790K CPU @ 4.00GHz
[06:32:13]  - Intel microarchitecture Haswell
[06:32:13]  - logical processor count: 8
[06:32:13] hb_scan: path=/Volumes/LaCie/Media Rips/Welcome to Marwen (2018)/Welcome to Marwen-SEG_MainFeature_t05.mkv, title_index=0
udfread ERROR: ECMA 167 Volume Recognition failed
disc.c:323: failed opening UDF image /Volumes/LaCie/Media Rips/Welcome to Marwen (2018)/Welcome to Marwen-SEG_MainFeature_t05.mkv
disc.c:424: error opening file BDMV/index.bdmv
disc.c:424: error opening file BDMV/BACKUP/index.bdmv
[06:32:13] bd: not a bd - trying as a stream/file instead
libdvdnav: Using dvdnav version 6.0.0
libdvdread:DVDOpenFileUDF:UDFFindFile /VIDEO_TS/VIDEO_TS.IFO failed
libdvdread:DVDOpenFileUDF:UDFFindFile /VIDEO_TS/VIDEO_TS.BUP failed
libdvdread: Can't open file VIDEO_TS.IFO.
libdvdnav: vm: failed to read VIDEO_TS.IFO
[06:32:13] dvd: not a dvd - trying as a stream/file instead
Input #0, matroska,webm, from '/Volumes/LaCie/Media Rips/Welcome to Marwen (2018)/Welcome to Marwen-SEG_MainFeature_t05.mkv':
  Metadata:
    title           : Welcome to Marwen
    encoder         : libmakemkv v1.14.3 (1.3.5/1.4.7) darwin(x64-release)
    creation_time   : 2019-05-23T01:05:10.000000Z
  Duration: 01:55:56.67, start: 0.000000, bitrate: 38775 kb/s
    Chapter #0:0: start 0.000000, end 257.257000
    Metadata:
      title           : Chapter 01
    Chapter #0:1: start 257.257000, end 657.448458
    Metadata:
      title           : Chapter 02
    Chapter #0:2: start 657.448458, end 1002.876875
    Metadata:
      title           : Chapter 03
    Chapter #0:3: start 1002.876875, end 1346.970625
    Metadata:
      title           : Chapter 04
    Chapter #0:4: start 1346.970625, end 1654.819833
    Metadata:
      title           : Chapter 05
    Chapter #0:5: start 1654.819833, end 2110.775333
    Metadata:
      title           : Chapter 06
    Chapter #0:6: start 2110.775333, end 2469.216750
    Metadata:
      title           : Chapter 07
    Chapter #0:7: start 2469.216750, end 2759.173083
    Metadata:
      title           : Chapter 08
    Chapter #0:8: start 2759.173083, end 3095.634208
    Metadata:
      title           : Chapter 09
    Chapter #0:9: start 3095.634208, end 3635.923958
    Metadata:
      title           : Chapter 10
    Chapter #0:10: start 3635.923958, end 3810.973833
    Metadata:
      title           : Chapter 11
    Chapter #0:11: start 3810.973833, end 4087.249833
    Metadata:
      title           : Chapter 12
    Chapter #0:12: start 4087.249833, end 4418.705958
    Metadata:
      title           : Chapter 13
    Chapter #0:13: start 4418.705958, end 4634.713417
    Metadata:
      title           : Chapter 14
    Chapter #0:14: start 4634.713417, end 5113.525083
    Metadata:
      title           : Chapter 15
    Chapter #0:15: start 5113.525083, end 5448.484708
    Metadata:
      title           : Chapter 16
    Chapter #0:16: start 5448.484708, end 5974.718750
    Metadata:
      title           : Chapter 17
    Chapter #0:17: start 5974.718750, end 6211.371833
    Metadata:
      title           : Chapter 18
    Chapter #0:18: start 6211.371833, end 6530.106917
    Metadata:
      title           : Chapter 19
    Chapter #0:19: start 6530.106917, end 6956.672000
    Metadata:
      title           : Chapter 20
    Stream #0:0(eng): Video: h264 (High), yuv420p(progressive), 1920x1080 [SAR 1:1 DAR 16:9], 23.98 fps, 23.98 tbr, 1k tbn, 47.95 tbc
    Metadata:
      BPS-eng         : 35055185
      DURATION-eng    : 01:55:56.616333333
      NUMBER_OF_FRAMES-eng: 166792
      NUMBER_OF_BYTES-eng: 30483182733
      SOURCE_ID-eng   : 001011
      _STATISTICS_WRITING_APP-eng: MakeMKV v1.14.3 darwin(x64-release)
      _STATISTICS_WRITING_DATE_UTC-eng: 2019-05-23 01:05:10
      _STATISTICS_TAGS-eng: BPS DURATION NUMBER_OF_FRAMES NUMBER_OF_BYTES SOURCE_ID
    Stream #0:1(eng): Audio: truehd, 48000 Hz, 5.1(side), s32 (24 bit) (default)
    Metadata:
      title           : Surround 5.1
      BPS-eng         : 3026022
      DURATION-eng    : 01:55:56.616666666
      NUMBER_OF_FRAMES-eng: 8347940
      NUMBER_OF_BYTES-eng: 2631359192
      SOURCE_ID-eng   : 001100
      _STATISTICS_WRITING_APP-eng: MakeMKV v1.14.3 darwin(x64-release)
      _STATISTICS_WRITING_DATE_UTC-eng: 2019-05-23 01:05:10
      _STATISTICS_TAGS-eng: BPS DURATION NUMBER_OF_FRAMES NUMBER_OF_BYTES SOURCE_ID
    Stream #0:2(eng): Audio: ac3, 48000 Hz, 5.1(side), fltp, 448 kb/s
    Metadata:
      title           : Surround 5.1
      BPS-eng         : 448000
      DURATION-eng    : 01:55:56.640000000
      NUMBER_OF_FRAMES-eng: 217395
      NUMBER_OF_BYTES-eng: 389571840
      SOURCE_ID-eng   : 001100
      _STATISTICS_WRITING_APP-eng: MakeMKV v1.14.3 darwin(x64-release)
      _STATISTICS_WRITING_DATE_UTC-eng: 2019-05-23 01:05:10
      _STATISTICS_TAGS-eng: BPS DURATION NUMBER_OF_FRAMES NUMBER_OF_BYTES SOURCE_ID
    Stream #0:3(eng): Audio: ac3, 48000 Hz, stereo, fltp, 192 kb/s
    Metadata:
      title           : Stereo
      BPS-eng         : 192000
      DURATION-eng    : 01:55:56.672000000
      NUMBER_OF_FRAMES-eng: 217396
      NUMBER_OF_BYTES-eng: 166960128
      SOURCE_ID-eng   : 001103
      _STATISTICS_WRITING_APP-eng: MakeMKV v1.14.3 darwin(x64-release)
      _STATISTICS_WRITING_DATE_UTC-eng: 2019-05-23 01:05:10
      _STATISTICS_TAGS-eng: BPS DURATION NUMBER_OF_FRAMES NUMBER_OF_BYTES SOURCE_ID
    Stream #0:4(eng): Subtitle: hdmv_pgs_subtitle
    Metadata:
      BPS-eng         : 44870
      DURATION-eng    : 01:46:04.462270833
      NUMBER_OF_FRAMES-eng: 3330
      NUMBER_OF_BYTES-eng: 35697252
      SOURCE_ID-eng   : 001200
      _STATISTICS_WRITING_APP-eng: MakeMKV v1.14.3 darwin(x64-release)
      _STATISTICS_WRITING_DATE_UTC-eng: 2019-05-23 01:05:10
      _STATISTICS_TAGS-eng: BPS DURATION NUMBER_OF_FRAMES NUMBER_OF_BYTES SOURCE_ID
    Stream #0:5: Video: mjpeg, yuvj420p(pc, bt470bg/unknown/unknown), 640x360 [SAR 96:96 DAR 16:9], 90k tbr, 90k tbn, 90k tbc
    Metadata:
      filename        : cover.jpg
      mimetype        : image/jpeg
[06:32:13] scan: decoding previews for title 1
[06:32:13] scan: audio 0x1: truehd, rate=48000Hz, bitrate=1 English (TrueHD) (5.1 ch)
[06:32:13] scan: audio 0x2: ac3, rate=48000Hz, bitrate=448000 English (AC3) (5.1 ch)
[06:32:13] scan: audio 0x3: ac3, rate=48000Hz, bitrate=192000 English (AC3) (2.0 ch) (Dolby Surround)
[06:32:15] scan: 10 previews, 1920x1080, 23.976 fps, autocrop = 138/138/0/0, aspect 16:9, PAR 1:1
[06:32:15] libhb: scan thread found 1 valid title(s)
[06:32:15] macgui: ScanCore scan done
[06:32:39] reader: done. 1 scr changes
[06:32:39] work: average encoding speed for job is 0.000000 fps
[06:32:39] comb detect: heavy 0 | light 0 | uncombed 0 | total 0
[06:32:39] decomb: deinterlaced 0 | blended 0 | unfiltered 0 | total 0
[06:32:39] vfr: 0 frames output, 0 dropped and 0 duped for CFR/PFR
[06:32:39] vfr: lost time: 0 (0 frames)
[06:32:39] vfr: gained time: 0 (0 frames) (0 not accounted for)
[06:32:39] h264-decoder done: 0 frames, 0 decoder errors
[06:32:39] sync: got 0 frames, 62796 expected
[06:32:39] Subtitle track 0 (id 0x2) 'English [PGS]': 688 hits (0 forced)
[06:32:39] No candidate detected during subtitle scan
[06:32:39] starting job
[06:32:39] decomb filter thread started for segment 0
[06:32:39] decomb filter thread started for segment 1
[06:32:39] decomb filter thread started for segment 2
[06:32:39] decomb filter thread started for segment 3
[06:32:39] decomb filter thread started for segment 4
[06:32:39] decomb filter thread started for segment 5
[06:32:39] decomb filter thread started for segment 6
[06:32:39] decomb filter thread started for segment 7
[06:32:39] decomb check thread started for segment 0
[06:32:39] decomb check thread started for segment 1
[06:32:39] decomb check thread started for segment 2
[06:32:39] decomb check thread started for segment 3
[06:32:39] decomb check thread started for segment 4
[06:32:39] decomb check thread started for segment 5
[06:32:39] decomb check thread started for segment 6
[06:32:39] decomb check thread started for segment 7
[06:32:39] mask filter thread started for segment 0
[06:32:39] mask filter thread started for segment 1
[06:32:39] mask filter thread started for segment 2
[06:32:39] mask filter thread started for segment 3
[06:32:39] mask filter thread started for segment 4
[06:32:39] mask filter thread started for segment 6
[06:32:39] mask filter thread started for segment 5
[06:32:39] mask filter thread started for segment 7
[06:32:39] mask erode thread started for segment 0
[06:32:39] mask erode thread started for segment 1
[06:32:39] mask erode thread started for segment 2
[06:32:39] mask erode thread started for segment 3
[06:32:39] mask erode thread started for segment 4
[06:32:39] mask erode thread started for segment 5
[06:32:39] mask erode thread started for segment 6
[06:32:39] mask erode thread started for segment 7
[06:32:39] mask dilate thread started for segment 0
[06:32:39] mask dilate thread started for segment 1
[06:32:39] mask dilate thread started for segment 2
[06:32:39] mask dilate thread started for segment 3
[06:32:39] mask dilate thread started for segment 4
[06:32:39] mask dilate thread started for segment 5
[06:32:39] mask dilate thread started for segment 6
[06:32:39] mask dilate thread started for segment 7
[06:32:39] yadif thread started for segment 0
[06:32:39] yadif thread started for segment 1
[06:32:39] yadif thread started for segment 2
[06:32:39] yadif thread started for segment 3
[06:32:39] yadif thread started for segment 4
[06:32:39] yadif thread started for segment 5
[06:32:39] yadif thread started for segment 6
[06:32:39] yadif thread started for segment 7
[06:32:39] job configuration:
[06:32:39]  * source
[06:32:39]    + /Volumes/LaCie/Media Rips/House M.D./Season 3/House - S3E22.mkv
[06:32:39]    + title 1, chapter(s) 1 to 6
[06:32:39]    + container: matroska,webm
[06:32:39]    + data rate: 23720 kbps
[06:32:39]  * destination
[06:32:39]    + /Volumes/LaCie/Media Rips/House M.D./Season 3/House - S3E22.m4v
[06:32:39]    + container: MPEG-4 (libavformat)
[06:32:39]      + align initial A/V stream timestamps
[06:32:39]      + chapter markers
[06:32:39]  * video track
[06:32:39]    + decoder: h264
[06:32:39]    + filters
[06:32:39]      + Comb Detect (mode=3:spatial-metric=2:motion-thresh=1:spatial-thresh=1:filter-mode=2:block-thresh=40:block-width=16:block-height=16)
[06:32:39]      + Decomb (mode=39)
[06:32:39]      + Framerate Shaper (mode=2:rate=27000000/900000)
[06:32:39]        + frame rate: 23.976 fps -> peak rate limited to 30.000 fps
[06:32:39]      + Crop and Scale (width=1920:height=1080:crop-top=0:crop-bottom=0:crop-left=0:crop-right=0)
[06:32:39]        + source: 1920 * 1080, crop (0/0/0/0): 1920 * 1080, scale: 1920 * 1080
[06:32:39]    + Output geometry
[06:32:39]      + storage dimensions: 1920 x 1080
[06:32:39]      + pixel aspect ratio: 1 : 1
[06:32:39]      + display dimensions: 1920 x 1080
[06:32:39]    + encoder: H.264 (libx264)
[06:32:39]      + preset:  slow
[06:32:39]      + profile: high
[06:32:39]      + level:   4.0
[06:32:39]      + quality: 20.00 (RF)
[06:32:39]      + color profile: 1-1-1
[06:32:39]  * audio track 1
[06:32:39]    + decoder: English (DTS) (5.1 ch) (track 1, id 0x1)
[06:32:39]      + bitrate: 768 kbps, samplerate: 48000 Hz
[06:32:39]    + mixdown: Stereo
[06:32:39]    + dither: triangular
[06:32:39]    + encoder: AAC (Apple AudioToolbox)
[06:32:39]      + bitrate: 160 kbps, samplerate: 48000 Hz
[06:32:39]  * audio track 2
[06:32:39]    + decoder: English (DTS) (5.1 ch) (track 1, id 0x1)
[06:32:39]      + bitrate: 768 kbps, samplerate: 48000 Hz
[06:32:39]    + mixdown: 5.1 Channels
[06:32:39]    + dither: triangular
[06:32:39]    + encoder: AC3 (libavcodec)
[06:32:39]      + bitrate: 640 kbps, samplerate: 48000 Hz
[06:32:39] sync: expecting 62796 video frames
[06:32:39] encx264: min-keyint: 24, keyint: 240
[06:32:39] encx264: encoding at constant RF 20.000000
[06:32:39] encx264: unparsed options: level=4.0:ref=4:direct=auto:subme=8:trellis=2:vbv-bufsize=31250:vbv-maxrate=25000:rc-lookahead=50
x264 [info]: using SAR=1/1
x264 [info]: using cpu capabilities: MMX2 SSE2Fast SSSE3 SSE4.2 AVX FMA3 BMI2 AVX2
x264 [info]: profile High, level 4.0, 4:2:0, 8-bit
[06:32:39] sync: first pts video is 0
[06:32:39] sync: "Chapter 1" (1) at frame 1 time 0
[06:32:39] sync: first pts audio 0x1 is 0
[06:32:39] sync: first pts audio 0x1 is 0
[06:34:56] macgui: trying to open a folder or file
[06:34:56] macgui: ScanCore scanning titles with a duration of 10 seconds or more
[06:34:56] CPU: Intel(R) Core(TM) i7-4790K CPU @ 4.00GHz
[06:34:56]  - Intel microarchitecture Haswell
[06:34:56]  - logical processor count: 8
[06:34:56] hb_scan: path=/Volumes/LaCie/Media Rips/Welcome to Marwen (2018)/Welcome to Marwen-SEG_MainFeature_t05.mkv, title_index=0
udfread ERROR: ECMA 167 Volume Recognition failed
disc.c:323: failed opening UDF image /Volumes/LaCie/Media Rips/Welcome to Marwen (2018)/Welcome to Marwen-SEG_MainFeature_t05.mkv
disc.c:424: error opening file BDMV/index.bdmv
disc.c:424: error opening file BDMV/BACKUP/index.bdmv
[06:34:56] bd: not a bd - trying as a stream/file instead
libdvdnav: Using dvdnav version 6.0.0
libdvdread:DVDOpenFileUDF:UDFFindFile /VIDEO_TS/VIDEO_TS.IFO failed
libdvdread:DVDOpenFileUDF:UDFFindFile /VIDEO_TS/VIDEO_TS.BUP failed
libdvdread: Can't open file VIDEO_TS.IFO.
libdvdnav: vm: failed to read VIDEO_TS.IFO
[06:34:56] dvd: not a dvd - trying as a stream/file instead
Input #0, matroska,webm, from '/Volumes/LaCie/Media Rips/Welcome to Marwen (2018)/Welcome to Marwen-SEG_MainFeature_t05.mkv':
  Metadata:
    title           : Welcome to Marwen
    encoder         : libmakemkv v1.14.3 (1.3.5/1.4.7) darwin(x64-release)
    creation_time   : 2019-05-23T01:05:10.000000Z
  Duration: 01:55:56.67, start: 0.000000, bitrate: 38775 kb/s
    Chapter #0:0: start 0.000000, end 257.257000
    Metadata:
      title           : Chapter 01
    Chapter #0:1: start 257.257000, end 657.448458
    Metadata:
      title           : Chapter 02
    Chapter #0:2: start 657.448458, end 1002.876875
    Metadata:
      title           : Chapter 03
    Chapter #0:3: start 1002.876875, end 1346.970625
    Metadata:
      title           : Chapter 04
    Chapter #0:4: start 1346.970625, end 1654.819833
    Metadata:
      title           : Chapter 05
    Chapter #0:5: start 1654.819833, end 2110.775333
    Metadata:
      title           : Chapter 06
    Chapter #0:6: start 2110.775333, end 2469.216750
    Metadata:
      title           : Chapter 07
    Chapter #0:7: start 2469.216750, end 2759.173083
    Metadata:
      title           : Chapter 08
    Chapter #0:8: start 2759.173083, end 3095.634208
    Metadata:
      title           : Chapter 09
    Chapter #0:9: start 3095.634208, end 3635.923958
    Metadata:
      title           : Chapter 10
    Chapter #0:10: start 3635.923958, end 3810.973833
    Metadata:
      title           : Chapter 11
    Chapter #0:11: start 3810.973833, end 4087.249833
    Metadata:
      title           : Chapter 12
    Chapter #0:12: start 4087.249833, end 4418.705958
    Metadata:
      title           : Chapter 13
    Chapter #0:13: start 4418.705958, end 4634.713417
    Metadata:
      title           : Chapter 14
    Chapter #0:14: start 4634.713417, end 5113.525083
    Metadata:
      title           : Chapter 15
    Chapter #0:15: start 5113.525083, end 5448.484708
    Metadata:
      title           : Chapter 16
    Chapter #0:16: start 5448.484708, end 5974.718750
    Metadata:
      title           : Chapter 17
    Chapter #0:17: start 5974.718750, end 6211.371833
    Metadata:
      title           : Chapter 18
    Chapter #0:18: start 6211.371833, end 6530.106917
    Metadata:
      title           : Chapter 19
    Chapter #0:19: start 6530.106917, end 6956.672000
    Metadata:
      title           : Chapter 20
    Stream #0:0(eng): Video: h264 (High), yuv420p(progressive), 1920x1080 [SAR 1:1 DAR 16:9], 23.98 fps, 23.98 tbr, 1k tbn, 47.95 tbc
    Metadata:
      BPS-eng         : 35055185
      DURATION-eng    : 01:55:56.616333333
      NUMBER_OF_FRAMES-eng: 166792
      NUMBER_OF_BYTES-eng: 30483182733
      SOURCE_ID-eng   : 001011
      _STATISTICS_WRITING_APP-eng: MakeMKV v1.14.3 darwin(x64-release)
      _STATISTICS_WRITING_DATE_UTC-eng: 2019-05-23 01:05:10
      _STATISTICS_TAGS-eng: BPS DURATION NUMBER_OF_FRAMES NUMBER_OF_BYTES SOURCE_ID
    Stream #0:1(eng): Audio: truehd, 48000 Hz, 5.1(side), s32 (24 bit) (default)
    Metadata:
      title           : Surround 5.1
      BPS-eng         : 3026022
      DURATION-eng    : 01:55:56.616666666
      NUMBER_OF_FRAMES-eng: 8347940
      NUMBER_OF_BYTES-eng: 2631359192
      SOURCE_ID-eng   : 001100
      _STATISTICS_WRITING_APP-eng: MakeMKV v1.14.3 darwin(x64-release)
      _STATISTICS_WRITING_DATE_UTC-eng: 2019-05-23 01:05:10
      _STATISTICS_TAGS-eng: BPS DURATION NUMBER_OF_FRAMES NUMBER_OF_BYTES SOURCE_ID
    Stream #0:2(eng): Audio: ac3, 48000 Hz, 5.1(side), fltp, 448 kb/s
    Metadata:
      title           : Surround 5.1
      BPS-eng         : 448000
      DURATION-eng    : 01:55:56.640000000
      NUMBER_OF_FRAMES-eng: 217395
      NUMBER_OF_BYTES-eng: 389571840
      SOURCE_ID-eng   : 001100
      _STATISTICS_WRITING_APP-eng: MakeMKV v1.14.3 darwin(x64-release)
      _STATISTICS_WRITING_DATE_UTC-eng: 2019-05-23 01:05:10
      _STATISTICS_TAGS-eng: BPS DURATION NUMBER_OF_FRAMES NUMBER_OF_BYTES SOURCE_ID
    Stream #0:3(eng): Audio: ac3, 48000 Hz, stereo, fltp, 192 kb/s
    Metadata:
      title           : Stereo
      BPS-eng         : 192000
      DURATION-eng    : 01:55:56.672000000
      NUMBER_OF_FRAMES-eng: 217396
      NUMBER_OF_BYTES-eng: 166960128
      SOURCE_ID-eng   : 001103
      _STATISTICS_WRITING_APP-eng: MakeMKV v1.14.3 darwin(x64-release)
      _STATISTICS_WRITING_DATE_UTC-eng: 2019-05-23 01:05:10
      _STATISTICS_TAGS-eng: BPS DURATION NUMBER_OF_FRAMES NUMBER_OF_BYTES SOURCE_ID
    Stream #0:4(eng): Subtitle: hdmv_pgs_subtitle
    Metadata:
      BPS-eng         : 44870
      DURATION-eng    : 01:46:04.462270833
      NUMBER_OF_FRAMES-eng: 3330
      NUMBER_OF_BYTES-eng: 35697252
      SOURCE_ID-eng   : 001200
      _STATISTICS_WRITING_APP-eng: MakeMKV v1.14.3 darwin(x64-release)
      _STATISTICS_WRITING_DATE_UTC-eng: 2019-05-23 01:05:10
      _STATISTICS_TAGS-eng: BPS DURATION NUMBER_OF_FRAMES NUMBER_OF_BYTES SOURCE_ID
    Stream #0:5: Video: mjpeg, yuvj420p(pc, bt470bg/unknown/unknown), 640x360 [SAR 96:96 DAR 16:9], 90k tbr, 90k tbn, 90k tbc
    Metadata:
      filename        : cover.jpg
      mimetype        : image/jpeg
[06:34:56] scan: decoding previews for title 1
[06:34:56] scan: audio 0x1: truehd, rate=48000Hz, bitrate=1 English (TrueHD) (5.1 ch)
[06:34:56] scan: audio 0x2: ac3, rate=48000Hz, bitrate=448000 English (AC3) (5.1 ch)
[06:34:56] scan: audio 0x3: ac3, rate=48000Hz, bitrate=192000 English (AC3) (2.0 ch) (Dolby Surround)
[06:34:59] scan: 10 previews, 1920x1080, 23.976 fps, autocrop = 138/138/0/0, aspect 16:9, PAR 1:1
[06:34:59] libhb: scan thread found 1 valid title(s)
[06:34:59] macgui: ScanCore scan done
[06:35:14] sync: "Chapter 2" (2) at frame 2299 time 8626117
[06:35:23] macgui: trying to open a folder or file
[06:35:23] macgui: ScanCore scanning titles with a duration of 10 seconds or more
[06:35:23] CPU: Intel(R) Core(TM) i7-4790K CPU @ 4.00GHz
[06:35:23]  - Intel microarchitecture Haswell
[06:35:23]  - logical processor count: 8
[06:35:23] hb_scan: path=/Volumes/LaCie/Media Rips/Welcome to Marwen (2018)/Welcome to Marwen-SF_2_t07.mkv, title_index=0
udfread ERROR: ECMA 167 Volume Recognition failed
disc.c:323: failed opening UDF image /Volumes/LaCie/Media Rips/Welcome to Marwen (2018)/Welcome to Marwen-SF_2_t07.mkv
disc.c:424: error opening file BDMV/index.bdmv
disc.c:424: error opening file BDMV/BACKUP/index.bdmv
[06:35:23] bd: not a bd - trying as a stream/file instead
libdvdnav: Using dvdnav version 6.0.0
libdvdread:DVDOpenFileUDF:UDFFindFile /VIDEO_TS/VIDEO_TS.IFO failed
libdvdread:DVDOpenFileUDF:UDFFindFile /VIDEO_TS/VIDEO_TS.BUP failed
libdvdread: Can't open file VIDEO_TS.IFO.
libdvdnav: vm: failed to read VIDEO_TS.IFO
[06:35:23] dvd: not a dvd - trying as a stream/file instead
Input #0, matroska,webm, from '/Volumes/LaCie/Media Rips/Welcome to Marwen (2018)/Welcome to Marwen-SF_2_t07.mkv':
  Metadata:
    title           : Welcome to Marwen
    encoder         : libmakemkv v1.14.3 (1.3.5/1.4.7) darwin(x64-release)
    creation_time   : 2019-05-23T02:14:45.000000Z
  Duration: 00:04:53.82, start: 0.000000, bitrate: 27648 kb/s
    Stream #0:0(eng): Video: h264 (High), yuv420p(progressive), 1920x1080 [SAR 1:1 DAR 16:9], 23.98 fps, 23.98 tbr, 1k tbn, 47.95 tbc
    Metadata:
      BPS-eng         : 27382692
      DURATION-eng    : 00:04:53.793500000
      NUMBER_OF_FRAMES-eng: 7044
      NUMBER_OF_BYTES-eng: 1005605420
      SOURCE_ID-eng   : 001011
      _STATISTICS_WRITING_APP-eng: MakeMKV v1.14.3 darwin(x64-release)
      _STATISTICS_WRITING_DATE_UTC-eng: 2019-05-23 02:14:45
      _STATISTICS_TAGS-eng: BPS DURATION NUMBER_OF_FRAMES NUMBER_OF_BYTES SOURCE_ID
    Stream #0:1(eng): Audio: ac3, 48000 Hz, stereo, fltp, 192 kb/s (default)
    Metadata:
      title           : Stereo
      BPS-eng         : 192000
      DURATION-eng    : 00:04:53.824000000
      NUMBER_OF_FRAMES-eng: 9182
      NUMBER_OF_BYTES-eng: 7051776
      SOURCE_ID-eng   : 001100
      _STATISTICS_WRITING_APP-eng: MakeMKV v1.14.3 darwin(x64-release)
      _STATISTICS_WRITING_DATE_UTC-eng: 2019-05-23 02:14:45
      _STATISTICS_TAGS-eng: BPS DURATION NUMBER_OF_FRAMES NUMBER_OF_BYTES SOURCE_ID
    Stream #0:2(eng): Subtitle: hdmv_pgs_subtitle, 1920x1080
    Metadata:
      BPS-eng         : 84702
      DURATION-eng    : 00:04:15.943187500
      NUMBER_OF_FRAMES-eng: 190
      NUMBER_OF_BYTES-eng: 2709883
      SOURCE_ID-eng   : 001200
      _STATISTICS_WRITING_APP-eng: MakeMKV v1.14.3 darwin(x64-release)
      _STATISTICS_WRITING_DATE_UTC-eng: 2019-05-23 02:14:45
      _STATISTICS_TAGS-eng: BPS DURATION NUMBER_OF_FRAMES NUMBER_OF_BYTES SOURCE_ID
[06:35:23] scan: decoding previews for title 1
[06:35:23] scan: audio 0x1: ac3, rate=48000Hz, bitrate=192000 English (AC3) (2.0 ch)
[06:35:26] scan: 10 previews, 1920x1080, 23.976 fps, autocrop = 0/0/0/0, aspect 16:9, PAR 1:1
[06:35:26] libhb: scan thread found 1 valid title(s)
[06:35:26] macgui: ScanCore scan done
[06:36:18] macgui: trying to open a folder or file
[06:36:18] macgui: ScanCore scanning titles with a duration of 10 seconds or more
[06:36:18] CPU: Intel(R) Core(TM) i7-4790K CPU @ 4.00GHz
[06:36:18]  - Intel microarchitecture Haswell
[06:36:18]  - logical processor count: 8
[06:36:18] hb_scan: path=/Volumes/LaCie/Media Rips/Welcome to Marwen (2018)/Welcome to Marwen-SF_DS_PlayAll_t18.mkv, title_index=0
udfread ERROR: ECMA 167 Volume Recognition failed
disc.c:323: failed opening UDF image /Volumes/LaCie/Media Rips/Welcome to Marwen (2018)/Welcome to Marwen-SF_DS_PlayAll_t18.mkv
disc.c:424: error opening file BDMV/index.bdmv
disc.c:424: error opening file BDMV/BACKUP/index.bdmv
[06:36:18] bd: not a bd - trying as a stream/file instead
libdvdnav: Using dvdnav version 6.0.0
libdvdread:DVDOpenFileUDF:UDFFindFile /VIDEO_TS/VIDEO_TS.IFO failed
libdvdread:DVDOpenFileUDF:UDFFindFile /VIDEO_TS/VIDEO_TS.BUP failed
libdvdread: Can't open file VIDEO_TS.IFO.
libdvdnav: vm: failed to read VIDEO_TS.IFO
[06:36:18] dvd: not a dvd - trying as a stream/file instead
Input #0, matroska,webm, from '/Volumes/LaCie/Media Rips/Welcome to Marwen (2018)/Welcome to Marwen-SF_DS_PlayAll_t18.mkv':
  Metadata:
    title           : Welcome to Marwen
    encoder         : libmakemkv v1.14.3 (1.3.5/1.4.7) darwin(x64-release)
    creation_time   : 2019-05-23T02:16:55.000000Z
  Duration: 00:11:22.22, start: 0.000000, bitrate: 31835 kb/s
    Chapter #0:0: start 0.000000, end 59.392667
    Metadata:
      title           : Chapter 01
    Chapter #0:1: start 59.392667, end 115.949167
    Metadata:
      title           : Chapter 02
    Chapter #0:2: start 115.949167, end 226.768208
    Metadata:
      title           : Chapter 03
    Chapter #0:3: start 226.768208, end 298.506542
    Metadata:
      title           : Chapter 04
    Chapter #0:4: start 298.506542, end 403.111042
    Metadata:
      title           : Chapter 05
    Chapter #0:5: start 403.111042, end 460.001208
    Metadata:
      title           : Chapter 06
    Chapter #0:6: start 460.001208, end 564.438875
    Metadata:
      title           : Chapter 07
    Chapter #0:7: start 564.438875, end 682.223208
    Metadata:
      title           : Chapter 08
    Stream #0:0(eng): Video: h264 (High), yuv420p(progressive), 1920x1080 [SAR 1:1 DAR 16:9], 23.98 fps, 23.98 tbr, 1k tbn, 47.95 tbc
    Metadata:
      BPS-eng         : 31607552
      DURATION-eng    : 00:11:22.223208333
      NUMBER_OF_FRAMES-eng: 16357
      NUMBER_OF_BYTES-eng: 2695424901
      SOURCE_ID-eng   : 001011
      _STATISTICS_WRITING_APP-eng: MakeMKV v1.14.3 darwin(x64-release)
      _STATISTICS_WRITING_DATE_UTC-eng: 2019-05-23 02:16:55
      _STATISTICS_TAGS-eng: BPS DURATION NUMBER_OF_FRAMES NUMBER_OF_BYTES SOURCE_ID
    Stream #0:1(eng): Audio: ac3, 48000 Hz, stereo, fltp, 192 kb/s (default)
    Metadata:
      title           : Stereo
      BPS-eng         : 192000
      DURATION-eng    : 00:11:22.240000000
      NUMBER_OF_FRAMES-eng: 21320
      NUMBER_OF_BYTES-eng: 16373760
      SOURCE_ID-eng   : 001100
      _STATISTICS_WRITING_APP-eng: MakeMKV v1.14.3 darwin(x64-release)
      _STATISTICS_WRITING_DATE_UTC-eng: 2019-05-23 02:16:55
      _STATISTICS_TAGS-eng: BPS DURATION NUMBER_OF_FRAMES NUMBER_OF_BYTES SOURCE_ID
    Stream #0:2(eng): Subtitle: hdmv_pgs_subtitle, 1920x1080
    Metadata:
      BPS-eng         : 33212
      DURATION-eng    : 00:11:17.656145833
      NUMBER_OF_FRAMES-eng: 286
      NUMBER_OF_BYTES-eng: 2813323
      SOURCE_ID-eng   : 001200
      _STATISTICS_WRITING_APP-eng: MakeMKV v1.14.3 darwin(x64-release)
      _STATISTICS_WRITING_DATE_UTC-eng: 2019-05-23 02:16:55
      _STATISTICS_TAGS-eng: BPS DURATION NUMBER_OF_FRAMES NUMBER_OF_BYTES SOURCE_ID
[06:36:18] scan: decoding previews for title 1
[06:36:18] scan: audio 0x1: ac3, rate=48000Hz, bitrate=192000 English (AC3) (2.0 ch) (Dolby Surround)
[06:36:21] scan: 10 previews, 1920x1080, 23.976 fps, autocrop = 144/138/0/0, aspect 16:9, PAR 1:1
[06:36:21] libhb: scan thread found 1 valid title(s)
[06:36:21] macgui: ScanCore scan done
[06:48:34] sync: "Chapter 3" (3) at frame 15684 time 58870061
[06:59:10] sync: "Chapter 4" (4) at frame 26159 time 98190592
[07:13:35] sync: "Chapter 5" (5) at frame 39826 time 149493093
[07:36:10] sync: "Chapter 6" (6) at frame 61798 time 231970488
[07:36:22] reader: done. 1 scr changes
[07:36:27] work: average encoding speed for job is 16.404079 fps
[07:36:27] comb detect: heavy 24 | light 103 | uncombed 62670 | total 62797
[07:36:27] decomb: deinterlaced 24 | blended 103 | unfiltered 62670 | total 62797
[07:36:27] vfr: 62797 frames output, 0 dropped and 0 duped for CFR/PFR
[07:36:27] vfr: lost time: 0 (0 frames)
[07:36:27] vfr: gained time: 0 (0 frames) (0 not accounted for)
[07:36:27] dca-decoder done: 245547 frames, 0 decoder errors
[07:36:27] dca-decoder done: 245547 frames, 0 decoder errors
[07:36:27] h264-decoder done: 62797 frames, 0 decoder errors
[07:36:27] sync: got 62797 frames, 62796 expected
[07:36:27] sync: framerate min 23.981 fps, max 23.981 fps, avg 23.976 fps
x264 [info]: frame I:1227  Avg QP:17.26  size:156899
x264 [info]: frame P:20160 Avg QP:19.72  size: 49010
x264 [info]: frame B:41410 Avg QP:20.27  size: 22441
x264 [info]: consecutive B-frames: 11.5%  1.2%  2.0% 85.4%
x264 [info]: mb I  I16..4:  5.0% 93.4%  1.6%
x264 [info]: mb P  I16..4:  2.3% 12.4%  0.3%  P16..4: 57.9% 12.2%  5.6%  0.0%  0.0%    skip: 9.3%
x264 [info]: mb B  I16..4:  0.1%  1.8%  0.0%  B16..8: 52.5%  4.1%  0.6%  direct: 6.0%  skip:34.9%  L0:45.9% L1:49.9% BI: 4.3%
x264 [info]: 8x8 transform intra:87.1% inter:83.2%
x264 [info]: direct mvs  spatial:100.0% temporal:0.0%
x264 [info]: coded y,uvDC,uvAC intra: 79.7% 84.0% 48.1% inter: 22.1% 41.5% 1.3%
x264 [info]: i16 v,h,dc,p: 35% 11% 10% 44%
x264 [info]: i8 v,h,dc,ddl,ddr,vr,hd,vl,hu: 12%  7% 20%  9% 11% 11% 10% 10% 11%
x264 [info]: i4 v,h,dc,ddl,ddr,vr,hd,vl,hu: 11%  4%  2% 12% 17% 16% 14% 12% 11%
x264 [info]: i8c dc,h,v,p: 51% 21% 19%  9%
x264 [info]: Weighted P-Frames: Y:1.2% UV:0.7%
x264 [info]: ref P L0: 53.3%  8.5% 25.1% 11.3%  1.8%  0.0%
x264 [info]: ref B L0: 82.6% 13.7%  3.7%
x264 [info]: ref B L1: 93.4%  6.6%
x264 [info]: kb/s:6444.34
[07:36:28] mux: track 0, 62797 frames, 2109796174 bytes, 6444.09 kbps, fifo 2048
[07:36:28] mux: track 1, 122776 frames, 53725606 bytes, 164.10 kbps, fifo 4096
[07:36:28] mux: track 2, 81849 frames, 209533440 bytes, 639.99 kbps, fifo 2048
[07:36:28] libhb: work result = 0

HandBrake Activity Log for Session: 2019-05-24T11:36:28Z
Handbrake Version: 1.2.2 (2019022300)
House - S3E23.m4v
Preset: HQ 1080p30 Surround
[07:36:28] macgui: QueueCore work done
[07:36:28] macgui: QueueCore scanning specifically for title: 1
[07:36:28] CPU: Intel(R) Core(TM) i7-4790K CPU @ 4.00GHz
[07:36:28] - Intel microarchitecture Haswell
[07:36:28] - logical processor count: 8
[07:36:28] hb_scan: path=/Volumes/LaCie/Media Rips/House M.D./Season 3/House - S3E23.mkv, title_index=1
udfread ERROR: ECMA 167 Volume Recognition failed
disc.c:323: failed opening UDF image /Volumes/LaCie/Media Rips/House M.D./Season 3/House - S3E23.mkv
disc.c:424: error opening file BDMV/index.bdmv
disc.c:424: error opening file BDMV/BACKUP/index.bdmv
[07:36:28] bd: not a bd - trying as a stream/file instead
libdvdnav: Using dvdnav version 6.0.0
libdvdread:DVDOpenFileUDF:UDFFindFile /VIDEO_TS/VIDEO_TS.IFO failed
libdvdread:DVDOpenFileUDF:UDFFindFile /VIDEO_TS/VIDEO_TS.BUP failed
libdvdread: Can't open file VIDEO_TS.IFO.
libdvdnav: vm: failed to read VIDEO_TS.IFO
[07:36:28] dvd: not a dvd - trying as a stream/file instead
Input #0, matroska,webm, from '/Volumes/LaCie/Media Rips/House M.D./Season 3/House - S3E23.mkv':
Metadata:
title : House - Season 3 Disc 5
encoder : libmakemkv v1.14.2 (1.3.5/1.4.7) darwin(x64-release)
creation_time : 2019-04-01T23:52:10.000000Z
Duration: 00:43:42.12, start: 0.000000, bitrate: 23711 kb/s
Chapter #0:0: start 0.000000, end 157.574083
Metadata:
title : Chapter 01
Chapter #0:1: start 157.574083, end 919.043125
Metadata:
title : Chapter 02
Chapter #0:2: start 919.043125, end 1402.901500
Metadata:
title : Chapter 03
Chapter #0:3: start 1402.901500, end 2001.249250
Metadata:
title : Chapter 04
Chapter #0:4: start 2001.249250, end 2580.035792
Metadata:
title : Chapter 05
Chapter #0:5: start 2580.035792, end 2622.119500
Metadata:
title : Chapter 06
Stream #0:0(eng): Video: h264 (High), yuv420p(progressive), 1920x1080 [SAR 1:1 DAR 16:9], 23.98 fps, 23.98 tbr, 1k tbn, 47.95 tbc
Metadata:
BPS-eng : 22866501
DURATION-eng : 00:43:42.119500000
NUMBER_OF_FRAMES-eng: 62868
NUMBER_OF_BYTES-eng: 7494836087
SOURCE_ID-eng : 001011
_STATISTICS_WRITING_APP-eng: MakeMKV v1.14.2 darwin(x64-release)
_STATISTICS_WRITING_DATE_UTC-eng: 2019-04-01 23:52:10
_STATISTICS_TAGS-eng: BPS DURATION NUMBER_OF_FRAMES NUMBER_OF_BYTES SOURCE_ID
Stream #0:1(eng): Audio: dts (DTS), 48000 Hz, 5.1(side), fltp, 768 kb/s (default)
Metadata:
title : Surround 5.1
BPS-eng : 768000
DURATION-eng : 00:43:42.122666666
NUMBER_OF_FRAMES-eng: 245824
NUMBER_OF_BYTES-eng: 251723776
SOURCE_ID-eng : 001101
_STATISTICS_WRITING_APP-eng: MakeMKV v1.14.2 darwin(x64-release)
_STATISTICS_WRITING_DATE_UTC-eng: 2019-04-01 23:52:10
_STATISTICS_TAGS-eng: BPS DURATION NUMBER_OF_FRAMES NUMBER_OF_BYTES SOURCE_ID
Stream #0:2(eng): Subtitle: hdmv_pgs_subtitle, 1920x1080
Metadata:
BPS-eng : 76172
DURATION-eng : 00:42:43.540145833
NUMBER_OF_FRAMES-eng: 1524
NUMBER_OF_BYTES-eng: 24409063
SOURCE_ID-eng : 001201
_STATISTICS_WRITING_APP-eng: MakeMKV v1.14.2 darwin(x64-release)
_STATISTICS_WRITING_DATE_UTC-eng: 2019-04-01 23:52:10
_STATISTICS_TAGS-eng: BPS DURATION NUMBER_OF_FRAMES NUMBER_OF_BYTES SOURCE_ID
[07:36:28] scan: decoding previews for title 1
[07:36:28] scan: audio 0x1: dca, rate=48000Hz, bitrate=768000 English (DTS) (5.1 ch)
[07:36:29] scan: 10 previews, 1920x1080, 23.976 fps, autocrop = 0/0/0/2, aspect 16:9, PAR 1:1
[07:36:29] libhb: scan thread found 1 valid title(s)
[17:23:58] macgui: QueueCore scan done
[17:23:58] macgui: QueueCore started encoding House - S3E23.m4v
[17:23:58] macgui: QueueCore with preset HQ 1080p30 Surround
[17:23:58] 1 job(s) to process
[17:23:58] starting job
[17:23:58] decomb filter thread started for segment 0
[17:23:58] decomb filter thread started for segment 1
[17:23:58] decomb filter thread started for segment 2
[17:23:58] decomb filter thread started for segment 3
[17:23:58] decomb filter thread started for segment 4
[17:23:58] decomb filter thread started for segment 5
[17:23:58] decomb filter thread started for segment 6
[17:23:58] decomb filter thread started for segment 7
[17:23:58] decomb check thread started for segment 0
[17:23:58] decomb check thread started for segment 1
[17:23:58] decomb check thread started for segment 2
[17:23:58] decomb check thread started for segment 3
[17:23:58] decomb check thread started for segment 4
[17:23:58] decomb check thread started for segment 5
[17:23:58] decomb check thread started for segment 6
[17:23:58] decomb check thread started for segment 7
[17:23:58] mask filter thread started for segment 0
[17:23:58] mask filter thread started for segment 1
[17:23:58] mask filter thread started for segment 2
[17:23:58] mask filter thread started for segment 3
[17:23:58] mask filter thread started for segment 4
[17:23:58] mask filter thread started for segment 5
[17:23:58] mask filter thread started for segment 6
[17:23:58] mask filter thread started for segment 7
[17:23:58] mask erode thread started for segment 0
[17:23:58] mask erode thread started for segment 1
[17:23:58] mask erode thread started for segment 2
[17:23:58] mask erode thread started for segment 3
[17:23:58] mask erode thread started for segment 4
[17:23:58] mask erode thread started for segment 5
[17:23:58] mask erode thread started for segment 6
[17:23:58] mask erode thread started for segment 7
[17:23:58] mask dilate thread started for segment 0
[17:23:58] mask dilate thread started for segment 1
[17:23:58] mask dilate thread started for segment 2
[17:23:58] mask dilate thread started for segment 3
[17:23:58] mask dilate thread started for segment 4
[17:23:58] mask dilate thread started for segment 5
[17:23:58] mask dilate thread started for segment 6
[17:23:58] mask dilate thread started for segment 7
[17:23:58] yadif thread started for segment 0
[17:23:58] yadif thread started for segment 1
[17:23:58] yadif thread started for segment 2
[17:23:58] yadif thread started for segment 3
[17:23:58] yadif thread started for segment 4
[17:23:58] yadif thread started for segment 5
[17:23:58] yadif thread started for segment 6
[17:23:58] yadif thread started for segment 7
[17:23:58] job configuration:
[17:23:58] * source
[17:23:58] + /Volumes/LaCie/Media Rips/House M.D./Season 3/House - S3E23.mkv
[17:23:58] + title 1, chapter(s) 1 to 6
[17:23:58] + container: matroska,webm
[17:23:58] + data rate: 23711 kbps
[17:23:58] * destination
[17:23:58] + /Volumes/LaCie/Media Rips/House M.D./Season 3/House - S3E23.m4v
[17:23:58] + container: MPEG-4 (libavformat)
[17:23:58] + align initial A/V stream timestamps
[17:23:58] + chapter markers
[17:23:58] * video track
[17:23:58] + decoder: h264
[17:23:58] + filters
[17:23:58] + Comb Detect (mode=3:spatial-metric=2:motion-thresh=1:spatial-thresh=1:filter-mode=2:block-thresh=40:block-width=16:block-height=16)
[17:23:58] + Decomb (mode=39)
[17:23:58] + Framerate Shaper (mode=2:rate=27000000/900000)
[17:23:58] + frame rate: 23.976 fps -> peak rate limited to 30.000 fps
[17:23:58] + Crop and Scale (width=1918:height=1080:crop-top=0:crop-bottom=0:crop-left=0:crop-right=2)
[17:23:58] + source: 1920 * 1080, crop (0/0/0/2): 1918 * 1080, scale: 1918 * 1080
[17:23:58] + Output geometry
[17:23:58] + storage dimensions: 1918 x 1080
[17:23:58] + pixel aspect ratio: 1 : 1
[17:23:58] + display dimensions: 1918 x 1080
[17:23:58] * Foreign Audio Search: Render/Burn-in, Forced Only
[17:23:58] + subtitle, English [PGS] (track 0, id 0x2, Picture)
[17:23:58] sync: expecting 62867 video frames
[17:24:49] reader: done. 1 scr changes
[17:24:49] work: average encoding speed for job is 0.000000 fps
[17:24:49] comb detect: heavy 0 | light 0 | uncombed 0 | total 0
[17:24:49] decomb: deinterlaced 0 | blended 0 | unfiltered 0 | total 0
[17:24:49] vfr: 0 frames output, 0 dropped and 0 duped for CFR/PFR
[17:24:49] vfr: lost time: 0 (0 frames)
[17:24:49] vfr: gained time: 0 (0 frames) (0 not accounted for)
[17:24:49] h264-decoder done: 0 frames, 0 decoder errors
[17:24:49] sync: got 0 frames, 62867 expected
[17:24:49] Subtitle track 0 (id 0x2) 'English [PGS]': 762 hits (0 forced)
[17:24:49] No candidate detected during subtitle scan
[17:24:49] starting job
[17:24:49] decomb filter thread started for segment 0
[17:24:49] decomb filter thread started for segment 1
[17:24:49] decomb filter thread started for segment 2
[17:24:49] decomb filter thread started for segment 3
[17:24:49] decomb filter thread started for segment 4
[17:24:49] decomb filter thread started for segment 5
[17:24:49] decomb filter thread started for segment 6
[17:24:49] decomb filter thread started for segment 7
[17:24:49] decomb check thread started for segment 0
[17:24:49] decomb check thread started for segment 1
[17:24:49] decomb check thread started for segment 2
[17:24:49] decomb check thread started for segment 3
[17:24:49] decomb check thread started for segment 4
[17:24:49] decomb check thread started for segment 5
[17:24:49] decomb check thread started for segment 6
[17:24:49] decomb check thread started for segment 7
[17:24:49] mask filter thread started for segment 0
[17:24:49] mask filter thread started for segment 1
[17:24:49] mask filter thread started for segment 2
[17:24:49] mask filter thread started for segment 3
[17:24:49] mask filter thread started for segment 4
[17:24:49] mask filter thread started for segment 5
[17:24:49] mask filter thread started for segment 6
[17:24:49] mask filter thread started for segment 7
[17:24:49] mask erode thread started for segment 0
[17:24:49] mask erode thread started for segment 1
[17:24:49] mask erode thread started for segment 2
[17:24:49] mask erode thread started for segment 3
[17:24:49] mask erode thread started for segment 4
[17:24:49] mask erode thread started for segment 5
[17:24:49] mask erode thread started for segment 6
[17:24:49] mask erode thread started for segment 7
[17:24:49] mask dilate thread started for segment 0
[17:24:49] mask dilate thread started for segment 1
[17:24:49] mask dilate thread started for segment 2
[17:24:49] mask dilate thread started for segment 3
[17:24:49] mask dilate thread started for segment 4
[17:24:49] mask dilate thread started for segment 5
[17:24:49] mask dilate thread started for segment 6
[17:24:49] mask dilate thread started for segment 7
[17:24:49] yadif thread started for segment 0
[17:24:49] yadif thread started for segment 1
[17:24:49] yadif thread started for segment 2
[17:24:49] yadif thread started for segment 3
[17:24:49] yadif thread started for segment 4
[17:24:49] yadif thread started for segment 5
[17:24:49] yadif thread started for segment 6
[17:24:49] yadif thread started for segment 7
[17:24:49] job configuration:
[17:24:49] * source
[17:24:49] + /Volumes/LaCie/Media Rips/House M.D./Season 3/House - S3E23.mkv
[17:24:49] + title 1, chapter(s) 1 to 6
[17:24:49] + container: matroska,webm
[17:24:49] + data rate: 23711 kbps
[17:24:49] * destination
[17:24:49] + /Volumes/LaCie/Media Rips/House M.D./Season 3/House - S3E23.m4v
[17:24:49] + container: MPEG-4 (libavformat)
[17:24:49] + align initial A/V stream timestamps
[17:24:49] + chapter markers
[17:24:49] * video track
[17:24:49] + decoder: h264
[17:24:49] + filters
[17:24:49] + Comb Detect (mode=3:spatial-metric=2:motion-thresh=1:spatial-thresh=1:filter-mode=2:block-thresh=40:block-width=16:block-height=16)
[17:24:49] + Decomb (mode=39)
[17:24:49] + Framerate Shaper (mode=2:rate=27000000/900000)
[17:24:49] + frame rate: 23.976 fps -> peak rate limited to 30.000 fps
[17:24:49] + Crop and Scale (width=1918:height=1080:crop-top=0:crop-bottom=0:crop-left=0:crop-right=2)
[17:24:49] + source: 1920 * 1080, crop (0/0/0/2): 1918 * 1080, scale: 1918 * 1080
[17:24:49] + Output geometry
[17:24:49] + storage dimensions: 1918 x 1080
[17:24:49] + pixel aspect ratio: 1 : 1
[17:24:49] + display dimensions: 1918 x 1080
[17:24:49] + encoder: H.264 (libx264)
[17:24:49] + preset: slow
[17:24:49] + profile: high
[17:24:49] + level: 4.0
[17:24:49] + quality: 20.00 (RF)
[17:24:49] + color profile: 1-1-1
[17:24:49] * audio track 1
[17:24:49] + decoder: English (DTS) (5.1 ch) (track 1, id 0x1)
[17:24:49] + bitrate: 768 kbps, samplerate: 48000 Hz
[17:24:49] + mixdown: Stereo
[17:24:49] + dither: triangular
[17:24:49] + encoder: AAC (Apple AudioToolbox)
[17:24:49] + bitrate: 160 kbps, samplerate: 48000 Hz
[17:24:49] * audio track 2
[17:24:49] + decoder: English (DTS) (5.1 ch) (track 1, id 0x1)
[17:24:49] + bitrate: 768 kbps, samplerate: 48000 Hz
[17:24:49] + mixdown: 5.1 Channels
[17:24:49] + dither: triangular
[17:24:49] + encoder: AC3 (libavcodec)
[17:24:49] + bitrate: 640 kbps, samplerate: 48000 Hz
[17:24:49] sync: expecting 62867 video frames
[17:24:49] encx264: min-keyint: 24, keyint: 240
[17:24:49] encx264: encoding at constant RF 20.000000
[17:24:49] encx264: unparsed options: level=4.0:ref=4:direct=auto:subme=8:trellis=2:vbv-bufsize=31250:vbv-maxrate=25000:rc-lookahead=50
x264 [info]: using SAR=1/1
x264 [info]: using cpu capabilities: MMX2 SSE2Fast SSSE3 SSE4.2 AVX FMA3 BMI2 AVX2
x264 [info]: profile High, level 4.0, 4:2:0, 8-bit
[17:24:49] sync: first pts video is 0
[17:24:49] sync: "Chapter 1" (1) at frame 1 time 0
[17:24:49] sync: first pts audio 0x1 is 0
[17:24:49] sync: first pts audio 0x1 is 0
[17:28:42] sync: "Chapter 2" (2) at frame 3781 time 14189175

@pjs128

This comment has been minimized.

Copy link
Author

commented May 25, 2019

Update to my problem...

once the second item started (as describer above... items 2 thru 5 completed and then item 6 was "stuck" until I unlocked the Mac about 12-13 hours later...

You can see in the log below that the "pause" is between these two entries...

[21:39:35] libhb: scan thread found 1 valid title(s)
[09:45:37] macgui: QueueCore scan done

NOTE: while this is the first case of my posting this issue, it has been present for about 4 or more months and was a behavior found in the prior version of Handbrake.

HandBrake Activity Log for Session: 2019-05-25T01:39:33Z
Handbrake Version: 1.2.2 (2019022300)
House - S4E03.m4v
Preset: HQ 1080p30 Surround
[21:39:33] macgui: QueueCore work done
[21:39:33] macgui: QueueCore scanning specifically for title: 4
[21:39:33] CPU: Intel(R) Core(TM) i7-4790K CPU @ 4.00GHz
[21:39:33]  - Intel microarchitecture Haswell
[21:39:33]  - logical processor count: 8
[21:39:33] hb_scan: path=/Volumes/LaCie/Media Rips/House M.D./Season 4/House - S4E03.mkv, title_index=4
udfread ERROR: ECMA 167 Volume Recognition failed
disc.c:323: failed opening UDF image /Volumes/LaCie/Media Rips/House M.D./Season 4/House - S4E03.mkv
disc.c:424: error opening file BDMV/index.bdmv
disc.c:424: error opening file BDMV/BACKUP/index.bdmv
[21:39:33] bd: not a bd - trying as a stream/file instead
libdvdnav: Using dvdnav version 6.0.0
libdvdread:DVDOpenFileUDF:UDFFindFile /VIDEO_TS/VIDEO_TS.IFO failed
libdvdread:DVDOpenFileUDF:UDFFindFile /VIDEO_TS/VIDEO_TS.BUP failed
libdvdread: Can't open file VIDEO_TS.IFO.
libdvdnav: vm: failed to read VIDEO_TS.IFO
[21:39:33] dvd: not a dvd - trying as a stream/file instead
Input #0, matroska,webm, from '/Volumes/LaCie/Media Rips/House M.D./Season 4/House - S4E03.mkv':
  Metadata:
    title           : House - Season 4 Disc 1
    encoder         : libmakemkv v1.14.2 (1.3.5/1.4.7) darwin(x64-release)
    creation_time   : 2019-04-02T01:07:36.000000Z
  Duration: 00:43:55.47, start: 0.000000, bitrate: 23726 kb/s
    Chapter #0:0: start 0.000000, end 115.281833
    Metadata:
      title           : Chapter 01
    Chapter #0:1: start 115.281833, end 584.750833
    Metadata:
      title           : Chapter 02
    Chapter #0:2: start 584.750833, end 1041.623917
    Metadata:
      title           : Chapter 03
    Chapter #0:3: start 1041.623917, end 1970.093125
    Metadata:
      title           : Chapter 04
    Chapter #0:4: start 1970.093125, end 2593.841250
    Metadata:
      title           : Chapter 05
    Chapter #0:5: start 2593.841250, end 2635.466167
    Metadata:
      title           : Chapter 06
    Stream #0:0(eng): Video: h264 (High), yuv420p(progressive), 1920x1080 [SAR 1:1 DAR 16:9], 23.98 fps, 23.98 tbr, 1k tbn, 47.95 tbc
    Metadata:
      BPS-eng         : 22875950
      DURATION-eng    : 00:43:55.466166666
      NUMBER_OF_FRAMES-eng: 63188
      NUMBER_OF_BYTES-eng: 7536098598
      SOURCE_ID-eng   : 001011
      _STATISTICS_WRITING_APP-eng: MakeMKV v1.14.2 darwin(x64-release)
      _STATISTICS_WRITING_DATE_UTC-eng: 2019-04-02 01:07:36
      _STATISTICS_TAGS-eng: BPS DURATION NUMBER_OF_FRAMES NUMBER_OF_BYTES SOURCE_ID
    Stream #0:1(eng): Audio: dts (DTS), 48000 Hz, 5.1(side), fltp, 768 kb/s (default)
    Metadata:
      title           : Surround 5.1
      BPS-eng         : 768000
      DURATION-eng    : 00:43:55.466666666
      NUMBER_OF_FRAMES-eng: 247075
      NUMBER_OF_BYTES-eng: 253004800
      SOURCE_ID-eng   : 001101
      _STATISTICS_WRITING_APP-eng: MakeMKV v1.14.2 darwin(x64-release)
      _STATISTICS_WRITING_DATE_UTC-eng: 2019-04-02 01:07:36
      _STATISTICS_TAGS-eng: BPS DURATION NUMBER_OF_FRAMES NUMBER_OF_BYTES SOURCE_ID
    Stream #0:2(eng): Subtitle: hdmv_pgs_subtitle, 1920x1080
    Metadata:
      BPS-eng         : 81634
      DURATION-eng    : 00:43:08.648562500
      NUMBER_OF_FRAMES-eng: 1647
      NUMBER_OF_BYTES-eng: 26415262
      SOURCE_ID-eng   : 001201
      _STATISTICS_WRITING_APP-eng: MakeMKV v1.14.2 darwin(x64-release)
      _STATISTICS_WRITING_DATE_UTC-eng: 2019-04-02 01:07:36
      _STATISTICS_TAGS-eng: BPS DURATION NUMBER_OF_FRAMES NUMBER_OF_BYTES SOURCE_ID
[21:39:33] scan: decoding previews for title 4
[21:39:33] scan: audio 0x1: dca, rate=48000Hz, bitrate=768000 English (DTS) (5.1 ch)
[21:39:35] scan: 10 previews, 1920x1080, 23.976 fps, autocrop = 0/0/0/0, aspect 16:9, PAR 1:1
[21:39:35] libhb: scan thread found 1 valid title(s)
[09:45:37] macgui: QueueCore scan done
[09:45:37] macgui: QueueCore started encoding House - S4E03.m4v
[09:45:37] macgui: QueueCore with preset HQ 1080p30 Surround
[09:45:37] 1 job(s) to process
[09:45:37] starting job
[09:45:37] decomb filter thread started for segment 1
[09:45:37] decomb filter thread started for segment 2
[09:45:37] decomb filter thread started for segment 3
[09:45:37] decomb filter thread started for segment 4
[09:45:37] decomb filter thread started for segment 0
[09:45:37] decomb filter thread started for segment 5
[09:45:37] decomb filter thread started for segment 7
[09:45:37] decomb filter thread started for segment 6
[09:45:37] decomb check thread started for segment 0
[09:45:37] decomb check thread started for segment 1
[09:45:37] decomb check thread started for segment 2
[09:45:37] decomb check thread started for segment 3
[09:45:37] decomb check thread started for segment 4
[09:45:37] decomb check thread started for segment 5
[09:45:37] decomb check thread started for segment 6
[09:45:37] decomb check thread started for segment 7
[09:45:37] mask filter thread started for segment 0
[09:45:37] mask filter thread started for segment 1
[09:45:37] mask filter thread started for segment 2
[09:45:37] mask filter thread started for segment 3
[09:45:37] mask filter thread started for segment 4
[09:45:37] mask filter thread started for segment 5
[09:45:37] mask filter thread started for segment 6
[09:45:37] mask filter thread started for segment 7
[09:45:37] mask erode thread started for segment 0
[09:45:37] mask erode thread started for segment 1
[09:45:37] mask erode thread started for segment 2
[09:45:37] mask erode thread started for segment 3
[09:45:37] mask erode thread started for segment 4
[09:45:37] mask erode thread started for segment 5
[09:45:37] mask erode thread started for segment 6
[09:45:37] mask erode thread started for segment 7
[09:45:37] mask dilate thread started for segment 0
[09:45:37] mask dilate thread started for segment 1
[09:45:37] mask dilate thread started for segment 2
[09:45:37] mask dilate thread started for segment 3
[09:45:37] mask dilate thread started for segment 4
[09:45:37] mask dilate thread started for segment 5
[09:45:37] mask dilate thread started for segment 6
[09:45:37] mask dilate thread started for segment 7
[09:45:37] yadif thread started for segment 0
[09:45:37] yadif thread started for segment 1
[09:45:37] yadif thread started for segment 2
[09:45:37] yadif thread started for segment 3
[09:45:37] yadif thread started for segment 4
[09:45:37] yadif thread started for segment 5
[09:45:37] yadif thread started for segment 6
[09:45:37] yadif thread started for segment 7
[09:45:37] job configuration:
[09:45:37]  * source
[09:45:37]    + /Volumes/LaCie/Media Rips/House M.D./Season 4/House - S4E03.mkv
[09:45:37]    + title 4, chapter(s) 1 to 6
[09:45:37]    + container: matroska,webm
[09:45:37]    + data rate: 23726 kbps
[09:45:37]  * destination
[09:45:37]    + /Volumes/LaCie/Media Rips/House M.D./Season 4/House - S4E03.m4v
[09:45:37]    + container: MPEG-4 (libavformat)
[09:45:37]      + align initial A/V stream timestamps
[09:45:37]      + chapter markers
[09:45:37]  * video track
[09:45:37]    + decoder: h264
[09:45:37]    + filters
[09:45:37]      + Comb Detect (mode=3:spatial-metric=2:motion-thresh=1:spatial-thresh=1:filter-mode=2:block-thresh=40:block-width=16:block-height=16)
[09:45:37]      + Decomb (mode=39)
[09:45:37]      + Framerate Shaper (mode=2:rate=27000000/900000)
[09:45:37]        + frame rate: 23.976 fps -> peak rate limited to 30.000 fps
[09:45:37]      + Crop and Scale (width=1920:height=1080:crop-top=0:crop-bottom=0:crop-left=0:crop-right=0)
[09:45:37]        + source: 1920 * 1080, crop (0/0/0/0): 1920 * 1080, scale: 1920 * 1080
[09:45:37]    + Output geometry
[09:45:37]      + storage dimensions: 1920 x 1080
[09:45:37]      + pixel aspect ratio: 1 : 1
[09:45:37]      + display dimensions: 1920 x 1080
[09:45:37]  * Foreign Audio Search: Render/Burn-in, Forced Only
[09:45:37]    + subtitle, English [PGS] (track 0, id 0x2, Picture)
[09:45:37] sync: expecting 63187 video frames
[09:46:26] reader: done. 1 scr changes
[09:46:26] work: average encoding speed for job is 0.000000 fps
[09:46:26] comb detect: heavy 0 | light 0 | uncombed 0 | total 0
[09:46:26] decomb: deinterlaced 0 | blended 0 | unfiltered 0 | total 0
[09:46:26] vfr: 0 frames output, 0 dropped and 0 duped for CFR/PFR
[09:46:26] vfr: lost time: 0 (0 frames)
[09:46:26] vfr: gained time: 0 (0 frames) (0 not accounted for)
[09:46:26] h264-decoder done: 0 frames, 0 decoder errors
[09:46:26] sync: got 0 frames, 63187 expected
[09:46:26] Subtitle track 0 (id 0x2) 'English [PGS]': 824 hits (0 forced)
[09:46:26] No candidate detected during subtitle scan
[09:46:26] starting job
[09:46:26] decomb filter thread started for segment 0
[09:46:26] decomb filter thread started for segment 1
[09:46:26] decomb filter thread started for segment 2
[09:46:26] decomb filter thread started for segment 3
[09:46:26] decomb filter thread started for segment 4
[09:46:26] decomb filter thread started for segment 5
[09:46:26] decomb filter thread started for segment 6
[09:46:26] decomb filter thread started for segment 7
[09:46:26] decomb check thread started for segment 0
[09:46:26] decomb check thread started for segment 1
[09:46:26] decomb check thread started for segment 2
[09:46:26] decomb check thread started for segment 3
[09:46:26] decomb check thread started for segment 4
[09:46:26] decomb check thread started for segment 5
[09:46:26] decomb check thread started for segment 6
[09:46:26] decomb check thread started for segment 7
[09:46:26] mask filter thread started for segment 0
[09:46:26] mask filter thread started for segment 1
[09:46:26] mask filter thread started for segment 2
[09:46:26] mask filter thread started for segment 3
[09:46:26] mask filter thread started for segment 4
[09:46:26] mask filter thread started for segment 5
[09:46:26] mask filter thread started for segment 6
[09:46:26] mask filter thread started for segment 7
[09:46:26] mask erode thread started for segment 0
[09:46:26] mask erode thread started for segment 1
[09:46:26] mask erode thread started for segment 2
[09:46:26] mask erode thread started for segment 3
[09:46:26] mask erode thread started for segment 4
[09:46:26] mask erode thread started for segment 5
[09:46:26] mask erode thread started for segment 6
[09:46:26] mask erode thread started for segment 7
[09:46:26] mask dilate thread started for segment 0
[09:46:26] mask dilate thread started for segment 1
[09:46:26] mask dilate thread started for segment 2
[09:46:26] mask dilate thread started for segment 3
[09:46:26] mask dilate thread started for segment 4
[09:46:26] mask dilate thread started for segment 5
[09:46:26] mask dilate thread started for segment 6
[09:46:26] mask dilate thread started for segment 7
[09:46:26] yadif thread started for segment 0
[09:46:26] yadif thread started for segment 1
[09:46:26] yadif thread started for segment 2
[09:46:26] yadif thread started for segment 3
[09:46:26] yadif thread started for segment 4
[09:46:26] yadif thread started for segment 5
[09:46:26] yadif thread started for segment 6
[09:46:26] yadif thread started for segment 7
[09:46:26] job configuration:
[09:46:26]  * source
[09:46:26]    + /Volumes/LaCie/Media Rips/House M.D./Season 4/House - S4E03.mkv
[09:46:26]    + title 4, chapter(s) 1 to 6
[09:46:26]    + container: matroska,webm
[09:46:26]    + data rate: 23726 kbps
[09:46:26]  * destination
[09:46:26]    + /Volumes/LaCie/Media Rips/House M.D./Season 4/House - S4E03.m4v
[09:46:26]    + container: MPEG-4 (libavformat)
[09:46:26]      + align initial A/V stream timestamps
[09:46:26]      + chapter markers
[09:46:26]  * video track
[09:46:26]    + decoder: h264
[09:46:26]    + filters
[09:46:26]      + Comb Detect (mode=3:spatial-metric=2:motion-thresh=1:spatial-thresh=1:filter-mode=2:block-thresh=40:block-width=16:block-height=16)
[09:46:26]      + Decomb (mode=39)
[09:46:26]      + Framerate Shaper (mode=2:rate=27000000/900000)
[09:46:26]        + frame rate: 23.976 fps -> peak rate limited to 30.000 fps
[09:46:26]      + Crop and Scale (width=1920:height=1080:crop-top=0:crop-bottom=0:crop-left=0:crop-right=0)
[09:46:26]        + source: 1920 * 1080, crop (0/0/0/0): 1920 * 1080, scale: 1920 * 1080
[09:46:26]    + Output geometry
[09:46:26]      + storage dimensions: 1920 x 1080
[09:46:26]      + pixel aspect ratio: 1 : 1
[09:46:26]      + display dimensions: 1920 x 1080
[09:46:26]    + encoder: H.264 (libx264)
[09:46:26]      + preset:  slow
[09:46:26]      + profile: high
[09:46:26]      + level:   4.0
[09:46:26]      + quality: 20.00 (RF)
[09:46:26]      + color profile: 1-1-1
[09:46:26]  * audio track 1
[09:46:26]    + decoder: English (DTS) (5.1 ch) (track 1, id 0x1)
[09:46:26]      + bitrate: 768 kbps, samplerate: 48000 Hz
[09:46:26]    + mixdown: Stereo
[09:46:26]    + dither: triangular
[09:46:26]    + encoder: AAC (Apple AudioToolbox)
[09:46:26]      + bitrate: 160 kbps, samplerate: 48000 Hz
[09:46:26]  * audio track 2
[09:46:26]    + decoder: English (DTS) (5.1 ch) (track 1, id 0x1)
[09:46:26]      + bitrate: 768 kbps, samplerate: 48000 Hz
[09:46:26]    + mixdown: 5.1 Channels
[09:46:26]    + dither: triangular
[09:46:26]    + encoder: AC3 (libavcodec)
[09:46:26]      + bitrate: 640 kbps, samplerate: 48000 Hz
[09:46:26] sync: expecting 63187 video frames
[09:46:26] encx264: min-keyint: 24, keyint: 240
[09:46:26] encx264: encoding at constant RF 20.000000
[09:46:26] encx264: unparsed options: level=4.0:ref=4:direct=auto:subme=8:trellis=2:vbv-bufsize=31250:vbv-maxrate=25000:rc-lookahead=50
x264 [info]: using SAR=1/1
x264 [info]: using cpu capabilities: MMX2 SSE2Fast SSSE3 SSE4.2 AVX FMA3 BMI2 AVX2
x264 [info]: profile High, level 4.0, 4:2:0, 8-bit
[09:46:26] sync: first pts video is 0
[09:46:26] sync: "Chapter 1" (1) at frame 1 time 0
[09:46:26] sync: first pts audio 0x1 is 0
[09:46:26] sync: first pts audio 0x1 is 0
[09:49:07] sync: "Chapter 2" (2) at frame 2765 time 10375365

This encode is still running now...

@galad87

This comment has been minimized.

Copy link
Contributor

commented Jun 6, 2019

Do you have the "When done" action set to something?

@sr55

This comment has been minimized.

Copy link
Contributor

commented Jun 15, 2019

Just checking in for feedback.

If not, I'll close in the next day or two.

Sign up for free to join this conversation on GitHub. Already have an account? Sign in to comment
You can’t perform that action at this time.