Skip to content
New issue

Have a question about this project? Sign up for a free GitHub account to open an issue and contact its maintainers and the community.

By clicking “Sign up for GitHub”, you agree to our terms of service and privacy statement. We’ll occasionally send you account related emails.

Already on GitHub? Sign in to your account

AMD VCE H265 freezes during encode #2239

Closed
UnicornsOnLSD opened this issue Aug 14, 2019 · 2 comments

Comments

@UnicornsOnLSD
Copy link

commented Aug 14, 2019

Description of the problem

Trying to encode a movie from H264 to H265 and the encode always stops at around 50%. HandBrake itself does not crash but the encode does not progress.

HandBrake version (e.g., 1.0.0)

1.2.2

Operating system and version (e.g., Ubuntu 18.04 LTS, macOS 10.14 Mojave, Windows 10 1809)

Microsoft Windows NT 10.0.18362.0

Error message text or screenshot

image

HandBrake Activity Log (see https://handbrake.fr/docs/en/latest/help/activity-log.html)

HandBrake 1.2.2 (2019022300)
OS: Microsoft Windows NT 10.0.18362.0
CPU: Intel(R) Core(TM) i5-6600K CPU @ 3.50GHz
Ram: 16327 MB, 
GPU Information:
  AMD Radeon RX 5700 XT - 26.20.13001.29010
Screen: 1920x1080
Temp Dir: C:\Users\James\AppData\Local\Temp\
Install Dir: D:\Program Files\HandBrake
Data Dir: C:\Users\James\AppData\Roaming\HandBrake

-------------------------------------------


# Starting Encode ...

[22:39:35] hb_init: starting libhb thread
[22:39:36] 1 job(s) to process
[22:39:36] json job:
{
  "Audio": {
    "AudioList": [
      {
        "DRC": 0.0,
        "Encoder": "copy",
        "Gain": 0.0,
        "Mixdown": -1,
        "NormalizeMixLevel": false,
        "Samplerate": 0,
        "Track": 0,
        "DitherMethod": 0
      },
      {
        "DRC": 0.0,
        "Encoder": "copy",
        "Gain": 0.0,
        "Mixdown": -1,
        "NormalizeMixLevel": false,
        "Samplerate": 0,
        "Track": 1,
        "DitherMethod": 0
      },
      {
        "DRC": 0.0,
        "Encoder": "ac3",
        "Gain": 0.0,
        "Mixdown": -1,
        "NormalizeMixLevel": false,
        "Samplerate": 0,
        "Track": 2,
        "DitherMethod": 0
      }
    ],
    "CopyMask": [
      "copy:aac",
      "copy:ac3",
      "copy:dtshd",
      "copy:dts",
      "copy:eac3",
      "copy:flac",
      "copy:mp3",
      "copy:truehd"
    ],
    "FallbackEncoder": "ac3"
  },
  "Destination": {
    "ChapterList": [
      {
        "Name": "00:00:00.000"
      },
      {
        "Name": "The Human Condition"
      },
      {
        "Name": "SEELE's Plan"
      },
      {
        "Name": "Loyalties"
      },
      {
        "Name": "Defensive Preparations"
      },
      {
        "Name": "Dogs of War"
      },
      {
        "Name": "Asuka's Awakening"
      },
      {
        "Name": "Unit 02 Strikes"
      },
      {
        "Name": "Salvation and Sacrifice"
      },
      {
        "Name": "All or Nothing"
      },
      {
        "Name": "Requiem"
      },
      {
        "Name": "Thanatos -If I Can't Be Yours-"
      },
      {
        "Name": "\"Death is an Angel with Two Faces\""
      },
      {
        "Name": "Lilith"
      },
      {
        "Name": "Destruction..."
      },
      {
        "Name": "...Breeds Creation"
      },
      {
        "Name": "Anyone Would Do"
      },
      {
        "Name": "Pathetic"
      },
      {
        "Name": "This Mortal Coil"
      },
      {
        "Name": "Reflections"
      },
      {
        "Name": "Genesis"
      },
      {
        "Name": "Goodbye"
      }
    ],
    "ChapterMarkers": true,
    "AlignAVStart": false,
    "File": "D:\\Videos\\Neon.Genesis.Evangelion-The.End.of.Evangelion.1997.1080p.Remux.BluRay.QP20.mkv",
    "Mp4Options": {
      "IpodAtom": false,
      "Mp4Optimize": false
    },
    "Mux": "mkv"
  },
  "Filters": {
    "FilterList": [
      {
        "ID": 11,
        "Settings": {
          "crop-bottom": "0",
          "crop-left": "0",
          "crop-right": "0",
          "crop-top": "0",
          "height": "1080",
          "width": "1920"
        }
      },
      {
        "ID": 6,
        "Settings": {
          "mode": "1"
        }
      }
    ]
  },
  "PAR": {
    "Num": 1,
    "Den": 1
  },
  "Metadata": {},
  "SequenceID": 0,
  "Source": {
    "Angle": 1,
    "Range": {
      "Type": "chapter",
      "Start": 1,
      "End": 22
    },
    "Title": 1,
    "Path": "D:\\Downloads\\Neon.Genesis.Evangelion-The.End.of.Evangelion.1997.1080p.Remux.BluRay.AVC.FLAC 5.1-oddset.mkv"
  },
  "Subtitle": {
    "Search": {
      "Burn": false,
      "Default": false,
      "Enable": false,
      "Forced": false
    },
    "SubtitleList": [
      {
        "Burn": false,
        "Default": false,
        "Forced": false,
        "ID": 1,
        "Offset": 0,
        "Track": 0
      },
      {
        "Burn": false,
        "Default": false,
        "Forced": false,
        "ID": 2,
        "Offset": 0,
        "Track": 1
      },
      {
        "Burn": false,
        "Default": false,
        "Forced": false,
        "ID": 3,
        "Offset": 0,
        "Track": 2
      },
      {
        "Burn": false,
        "Default": false,
        "Forced": false,
        "ID": 4,
        "Offset": 0,
        "Track": 3
      },
      {
        "Burn": false,
        "Default": false,
        "Forced": false,
        "ID": 5,
        "Offset": 0,
        "Track": 4
      },
      {
        "Burn": false,
        "Default": false,
        "Forced": false,
        "ID": 6,
        "Offset": 0,
        "Track": 5
      }
    ]
  },
  "Video": {
    "Encoder": "vce_h265",
    "Level": "auto",
    "TwoPass": false,
    "Turbo": false,
    "ColorMatrixCode": 0,
    "Options": "",
    "Preset": "quality",
    "Profile": "main",
    "Quality": 20.0,
    "QSV": {
      "Decode": false,
      "AsyncDepth": 0
    }
  }
}
[22:39:36] CPU: Intel(R) Core(TM) i5-6600K CPU @ 3.50GHz
[22:39:36]  - Intel microarchitecture Skylake
[22:39:36]  - logical processor count: 4
[22:39:36] Intel Quick Sync Video support: no
[22:39:36] hb_scan: path=D:\Downloads\Neon.Genesis.Evangelion-The.End.of.Evangelion.1997.1080p.Remux.BluRay.AVC.FLAC 5.1-oddset.mkv, title_index=1
udfread ERROR: ECMA 167 Volume Recognition failed
src/libbluray/disc/disc.c:323: failed opening UDF image D:\Downloads\Neon.Genesis.Evangelion-The.End.of.Evangelion.1997.1080p.Remux.BluRay.AVC.FLAC 5.1-oddset.mkv
src/libbluray/disc/disc.c:424: error opening file BDMV\index.bdmv
src/libbluray/disc/disc.c:424: error opening file BDMV\BACKUP\index.bdmv
[22:39:36] bd: not a bd - trying as a stream/file instead
libdvdnav: Using dvdnav version 6.0.0
libdvdread: Encrypted DVD support unavailable.
libdvdread:DVDOpenFileUDF:UDFFindFile /VIDEO_TS/VIDEO_TS.IFO failed
libdvdread:DVDOpenFileUDF:UDFFindFile /VIDEO_TS/VIDEO_TS.BUP failed
libdvdread: Can't open file VIDEO_TS.IFO.
libdvdnav: vm: failed to read VIDEO_TS.IFO
[22:39:36] dvd: not a dvd - trying as a stream/file instead
Input #0, matroska,webm, from 'D:\Downloads\Neon.Genesis.Evangelion-The.End.of.Evangelion.1997.1080p.Remux.BluRay.AVC.FLAC 5.1-oddset.mkv':
  Metadata:
    title           : The End of Evangelion (1997)
    encoder         : libebml v1.3.1 + libmatroska v1.4.2
    creation_time   : 2015-09-02T00:19:02.000000Z
  Duration: 01:26:47.54, start: 0.000000, bitrate: 33296 kb/s
    Chapter #0:0: start 0.000000, end 78.162000
    Metadata:
      title           : 00:00:00.000
    Chapter #0:1: start 78.162000, end 420.546000
    Metadata:
      title           : The Human Condition
    Chapter #0:2: start 420.546000, end 502.419000
    Metadata:
      title           : SEELE's Plan
    Chapter #0:3: start 502.419000, end 726.101000
    Metadata:
      title           : Loyalties
    Chapter #0:4: start 726.101000, end 795.420000
    Metadata:
      title           : Defensive Preparations
    Chapter #0:5: start 795.420000, end 1438.271000
    Metadata:
      title           : Dogs of War
    Chapter #0:6: start 1438.271000, end 1456.622000
    Metadata:
      title           : Asuka's Awakening
    Chapter #0:7: start 1456.622000, end 1800.257000
    Metadata:
      title           : Unit 02 Strikes
    Chapter #0:8: start 1800.257000, end 2021.186000
    Metadata:
      title           : Salvation and Sacrifice
    Chapter #0:9: start 2021.186000, end 2231.229000
    Metadata:
      title           : All or Nothing
    Chapter #0:10: start 2231.229000, end 2515.847000
    Metadata:
      title           : Requiem
    Chapter #0:11: start 2515.847000, end 2810.225000
    Metadata:
      title           : Thanatos -If I Can't Be Yours-
    Chapter #0:12: start 2810.225000, end 3193.608000
    Metadata:
      title           : "Death is an Angel with Two Faces"
    Chapter #0:13: start 3193.608000, end 3466.463000
    Metadata:
      title           : Lilith
    Chapter #0:14: start 3466.463000, end 3595.426000
    Metadata:
      title           : Destruction...
    Chapter #0:15: start 3595.426000, end 3727.599000
    Metadata:
      title           : ...Breeds Creation
    Chapter #0:16: start 3727.599000, end 3813.685000
    Metadata:
      title           : Anyone Would Do
    Chapter #0:17: start 3813.685000, end 3899.521000
    Metadata:
      title           : Pathetic
    Chapter #0:18: start 3899.521000, end 4374.037000
    Metadata:
      title           : This Mortal Coil
    Chapter #0:19: start 4374.037000, end 4553.549000
    Metadata:
      title           : Reflections
    Chapter #0:20: start 4553.549000, end 4926.922000
    Metadata:
      title           : Genesis
    Chapter #0:21: start 4926.922000, end 5207.542000
    Metadata:
      title           : Goodbye
    Stream #0:0(jpn): Video: h264 (High), yuv420p(tv, bt709, progressive), 1920x1080 [SAR 1:1 DAR 16:9], 23.98 fps, 23.98 tbr, 1k tbn, 47.95 tbc (default)
    Metadata:
      title           : @ 31013 Kbps
      BPS             : 30843923
      BPS-eng         : 30843923
      DURATION        : 01:26:47.202000000
      DURATION-eng    : 01:26:47.202000000
      NUMBER_OF_FRAMES: 124848
      NUMBER_OF_FRAMES-eng: 124848
      NUMBER_OF_BYTES : 20076317804
      NUMBER_OF_BYTES-eng: 20076317804
      _STATISTICS_WRITING_APP: mkvmerge v8.3.0 ('Over the Horizon') 64bit
      _STATISTICS_WRITING_APP-eng: mkvmerge v8.3.0 ('Over the Horizon') 64bit
      _STATISTICS_WRITING_DATE_UTC: 2015-09-02 00:19:02
      _STATISTICS_WRITING_DATE_UTC-eng: 2015-09-02 00:19:02
      _STATISTICS_TAGS: BPS DURATION NUMBER_OF_FRAMES NUMBER_OF_BYTES
      _STATISTICS_TAGS-eng: BPS DURATION NUMBER_OF_FRAMES NUMBER_OF_BYTES
    Stream #0:1(jpn): Audio: flac, 48000 Hz, 5.1(side), s16 (default)
    Metadata:
      title           : @ 1581 Kbps
      BPS             : 1580808
      BPS-eng         : 1580808
      DURATION        : 01:26:47.206000000
      DURATION-eng    : 01:26:47.206000000
      NUMBER_OF_FRAMES: 61022
      NUMBER_OF_FRAMES-eng: 61022
      NUMBER_OF_BYTES : 1028949395
      NUMBER_OF_BYTES-eng: 1028949395
      _STATISTICS_WRITING_APP: mkvmerge v8.3.0 ('Over the Horizon') 64bit
      _STATISTICS_WRITING_APP-eng: mkvmerge v8.3.0 ('Over the Horizon') 64bit
      _STATISTICS_WRITING_DATE_UTC: 2015-09-02 00:19:02
      _STATISTICS_WRITING_DATE_UTC-eng: 2015-09-02 00:19:02
      _STATISTICS_TAGS: BPS DURATION NUMBER_OF_FRAMES NUMBER_OF_BYTES
      _STATISTICS_TAGS-eng: BPS DURATION NUMBER_OF_FRAMES NUMBER_OF_BYTES
    Stream #0:2(eng): Audio: dts (DTS-ES), 48000 Hz, 6.1, fltp, 768 kb/s
    Metadata:
      title           : Manga Entertainment
      BPS             : 754499
      BPS-eng         : 754499
      DURATION        : 01:26:46.155000000
      DURATION-eng    : 01:26:46.155000000
      NUMBER_OF_FRAMES: 488077
      NUMBER_OF_FRAMES-eng: 488077
      NUMBER_OF_BYTES : 491005462
      NUMBER_OF_BYTES-eng: 491005462
      _STATISTICS_WRITING_APP: mkvmerge v8.3.0 ('Over the Horizon') 64bit
      _STATISTICS_WRITING_APP-eng: mkvmerge v8.3.0 ('Over the Horizon') 64bit
      _STATISTICS_WRITING_DATE_UTC: 2015-09-02 00:19:02
      _STATISTICS_WRITING_DATE_UTC-eng: 2015-09-02 00:19:02
      _STATISTICS_TAGS: BPS DURATION NUMBER_OF_FRAMES NUMBER_OF_BYTES
      _STATISTICS_TAGS-eng: BPS DURATION NUMBER_OF_FRAMES NUMBER_OF_BYTES
    Stream #0:3(eng): Audio: vorbis, 48000 Hz, stereo, fltp
    Metadata:
      title           : Dubbing Crew's Commentary
      BPS             : 101349
      BPS-eng         : 101349
      DURATION        : 01:26:47.530000000
      DURATION-eng    : 01:26:47.530000000
      NUMBER_OF_FRAMES: 398583
      NUMBER_OF_FRAMES-eng: 398583
      NUMBER_OF_BYTES : 65972667
      NUMBER_OF_BYTES-eng: 65972667
      _STATISTICS_WRITING_APP: mkvmerge v8.3.0 ('Over the Horizon') 64bit
      _STATISTICS_WRITING_APP-eng: mkvmerge v8.3.0 ('Over the Horizon') 64bit
      _STATISTICS_WRITING_DATE_UTC: 2015-09-02 00:19:02
      _STATISTICS_WRITING_DATE_UTC-eng: 2015-09-02 00:19:02
      _STATISTICS_TAGS: BPS DURATION NUMBER_OF_FRAMES NUMBER_OF_BYTES
      _STATISTICS_TAGS-eng: BPS DURATION NUMBER_OF_FRAMES NUMBER_OF_BYTES
    Stream #0:4(eng): Subtitle: ass (default)
    Metadata:
      title           : English Subtitles, Styled
      BPS             : 107
      BPS-eng         : 107
      DURATION        : 01:25:27.880000000
      DURATION-eng    : 01:25:27.880000000
      NUMBER_OF_FRAMES: 1035
      NUMBER_OF_FRAMES-eng: 1035
      NUMBER_OF_BYTES : 69051
      NUMBER_OF_BYTES-eng: 69051
      _STATISTICS_WRITING_APP: mkvmerge v8.3.0 ('Over the Horizon') 64bit
      _STATISTICS_WRITING_APP-eng: mkvmerge v8.3.0 ('Over the Horizon') 64bit
      _STATISTICS_WRITING_DATE_UTC: 2015-09-02 00:19:02
      _STATISTICS_WRITING_DATE_UTC-eng: 2015-09-02 00:19:02
      _STATISTICS_TAGS: BPS DURATION NUMBER_OF_FRAMES NUMBER_OF_BYTES
      _STATISTICS_TAGS-eng: BPS DURATION NUMBER_OF_FRAMES NUMBER_OF_BYTES
    Stream #0:5(eng): Subtitle: ass
    Metadata:
      title           : Songs + Signs, Styled
      BPS             : 16
      BPS-eng         : 16
      DURATION        : 01:25:27.880000000
      DURATION-eng    : 01:25:27.880000000
      NUMBER_OF_FRAMES: 146
      NUMBER_OF_FRAMES-eng: 146
      NUMBER_OF_BYTES : 10680
      NUMBER_OF_BYTES-eng: 10680
      _STATISTICS_WRITING_APP: mkvmerge v8.3.0 ('Over the Horizon') 64bit
      _STATISTICS_WRITING_APP-eng: mkvmerge v8.3.0 ('Over the Horizon') 64bit
      _STATISTICS_WRITING_DATE_UTC: 2015-09-02 00:19:02
      _STATISTICS_WRITING_DATE_UTC-eng: 2015-09-02 00:19:02
      _STATISTICS_TAGS: BPS DURATION NUMBER_OF_FRAMES NUMBER_OF_BYTES
      _STATISTICS_TAGS-eng: BPS DURATION NUMBER_OF_FRAMES NUMBER_OF_BYTES
    Stream #0:6(eng): Subtitle: subrip
    Metadata:
      title           : Songs + Signs, Not Styled
      BPS             : 3
      BPS-eng         : 3
      DURATION        : 01:25:27.880000000
      DURATION-eng    : 01:25:27.880000000
      NUMBER_OF_FRAMES: 66
      NUMBER_OF_FRAMES-eng: 66
      NUMBER_OF_BYTES : 2234
      NUMBER_OF_BYTES-eng: 2234
      _STATISTICS_WRITING_APP: mkvmerge v8.3.0 ('Over the Horizon') 64bit
      _STATISTICS_WRITING_APP-eng: mkvmerge v8.3.0 ('Over the Horizon') 64bit
      _STATISTICS_WRITING_DATE_UTC: 2015-09-02 00:19:02
      _STATISTICS_WRITING_DATE_UTC-eng: 2015-09-02 00:19:02
      _STATISTICS_TAGS: BPS DURATION NUMBER_OF_FRAMES NUMBER_OF_BYTES
      _STATISTICS_TAGS-eng: BPS DURATION NUMBER_OF_FRAMES NUMBER_OF_BYTES
    Stream #0:7(eng): Subtitle: subrip
    Metadata:
      title           : Signs Only, Not Styled
      BPS             : 2
      BPS-eng         : 2
      DURATION        : 01:25:28.293000000
      DURATION-eng    : 01:25:28.293000000
      NUMBER_OF_FRAMES: 50
      NUMBER_OF_FRAMES-eng: 50
      NUMBER_OF_BYTES : 1559
      NUMBER_OF_BYTES-eng: 1559
      _STATISTICS_WRITING_APP: mkvmerge v8.3.0 ('Over the Horizon') 64bit
      _STATISTICS_WRITING_APP-eng: mkvmerge v8.3.0 ('Over the Horizon') 64bit
      _STATISTICS_WRITING_DATE_UTC: 2015-09-02 00:19:02
      _STATISTICS_WRITING_DATE_UTC-eng: 2015-09-02 00:19:02
      _STATISTICS_TAGS: BPS DURATION NUMBER_OF_FRAMES NUMBER_OF_BYTES
      _STATISTICS_TAGS-eng: BPS DURATION NUMBER_OF_FRAMES NUMBER_OF_BYTES
    Stream #0:8(eng): Subtitle: ass
    Metadata:
      title           : Not Styled
      BPS             : 15
      BPS-eng         : 15
      DURATION        : 01:25:27.880000000
      DURATION-eng    : 01:25:27.880000000
      NUMBER_OF_FRAMES: 146
      NUMBER_OF_FRAMES-eng: 146
      NUMBER_OF_BYTES : 9788
      NUMBER_OF_BYTES-eng: 9788
      _STATISTICS_WRITING_APP: mkvmerge v8.3.0 ('Over the Horizon') 64bit
      _STATISTICS_WRITING_APP-eng: mkvmerge v8.3.0 ('Over the Horizon') 64bit
      _STATISTICS_WRITING_DATE_UTC: 2015-09-02 00:19:02
      _STATISTICS_WRITING_DATE_UTC-eng: 2015-09-02 00:19:02
      _STATISTICS_TAGS: BPS DURATION NUMBER_OF_FRAMES NUMBER_OF_BYTES
      _STATISTICS_TAGS-eng: BPS DURATION NUMBER_OF_FRAMES NUMBER_OF_BYTES
    Stream #0:9(ger): Subtitle: subrip
    Metadata:
      title           : Not Styled
      BPS             : 51
      BPS-eng         : 51
      DURATION        : 01:25:28.720000000
      DURATION-eng    : 01:25:28.720000000
      NUMBER_OF_FRAMES: 910
      NUMBER_OF_FRAMES-eng: 910
      NUMBER_OF_BYTES : 33283
      NUMBER_OF_BYTES-eng: 33283
      _STATISTICS_WRITING_APP: mkvmerge v8.3.0 ('Over the Horizon') 64bit
      _STATISTICS_WRITING_APP-eng: mkvmerge v8.3.0 ('Over the Horizon') 64bit
      _STATISTICS_WRITING_DATE_UTC: 2015-09-02 00:19:02
      _STATISTICS_WRITING_DATE_UTC-eng: 2015-09-02 00:19:02
      _STATISTICS_TAGS: BPS DURATION NUMBER_OF_FRAMES NUMBER_OF_BYTES
      _STATISTICS_TAGS-eng: BPS DURATION NUMBER_OF_FRAMES NUMBER_OF_BYTES
[22:39:36] scan: decoding previews for title 1
[22:39:36] scan: audio 0x1: flac, rate=48000Hz, bitrate=1 ??? (FLAC) (5.1 ch)
[22:39:36] scan: audio 0x2: dca, rate=48000Hz, bitrate=768000 English (DTS-ES) (6.1 ch)
[22:39:36] scan: audio 0x3: vorbis, rate=48000Hz, bitrate=1 English (Vorbis) (2.0 ch)
[22:39:37] scan: 10 previews, 1920x1080, 23.976 fps, autocrop = 0/0/0/0, aspect 16:9, PAR 1:1
[22:39:37] scan: supported video decoders: avcodec qsv
[22:39:37] libhb: scan thread found 1 valid title(s)
[22:39:37] starting job
[22:39:37] Auto Passthru: allowed codecs are AAC, AC3, E-AC3, TrueHD, DTS, DTS-HD, MP3, FLAC
[22:39:37] Auto Passthru: fallback is AC3
[22:39:37] Auto Passthru: using FLAC Passthru for track 1
[22:39:37] Auto Passthru: using DTS Passthru for track 2
[22:39:37] work: mixdown not specified, track 3 setting mixdown Stereo
[22:39:37] work: bitrate not specified, track 3 setting bitrate 224 Kbps
[22:39:37] job configuration:
[22:39:37]  * source
[22:39:37]    + D:\Downloads\Neon.Genesis.Evangelion-The.End.of.Evangelion.1997.1080p.Remux.BluRay.AVC.FLAC 5.1-oddset.mkv
[22:39:37]    + title 1, chapter(s) 1 to 22
[22:39:37]    + container: matroska,webm
[22:39:37]    + data rate: 33296 kbps
[22:39:37]  * destination
[22:39:37]    + D:\Videos\Neon.Genesis.Evangelion-The.End.of.Evangelion.1997.1080p.Remux.BluRay.QP20.mkv
[22:39:37]    + container: Matroska (libavformat)
[22:39:37]      + chapter markers
[22:39:37]  * video track
[22:39:37]    + decoder: h264
[22:39:37]    + filters
[22:39:37]      + Framerate Shaper (mode=1)
[22:39:37]        + frame rate: 23.976 fps -> constant 23.976 fps
[22:39:37]      + Crop and Scale (width=1920:height=1080:crop-top=0:crop-bottom=0:crop-left=0:crop-right=0)
[22:39:37]        + source: 1920 * 1080, crop (0/0/0/0): 1920 * 1080, scale: 1920 * 1080
[22:39:37]    + Output geometry
[22:39:37]      + storage dimensions: 1920 x 1080
[22:39:37]      + pixel aspect ratio: 1 : 1
[22:39:37]      + display dimensions: 1920 x 1080
[22:39:37]    + encoder: H.265 (AMD VCE)
[22:39:37]      + preset:  quality
[22:39:37]      + profile: main
[22:39:37]      + level:   auto
[22:39:37]      + quality: 20.00 (QP)
[22:39:37]      + color profile: 1-1-1
[22:39:37]  * subtitle track 1, English [SSA] (track 0, id 0x4, Text) -> Passthrough
[22:39:37]  * subtitle track 2, English [SSA] (track 1, id 0x5, Text) -> Passthrough
[22:39:37]  * subtitle track 3, English [UTF-8] (track 2, id 0x6, Text) -> Passthrough
[22:39:37]  * subtitle track 4, English [UTF-8] (track 3, id 0x7, Text) -> Passthrough
[22:39:37]  * subtitle track 5, English [SSA] (track 4, id 0x8, Text) -> Passthrough
[22:39:37]  * subtitle track 6, Deutsch [UTF-8] (track 5, id 0x9, Text) -> Passthrough
[22:39:37]  * audio track 1
[22:39:37]    + decoder: ??? (FLAC) (5.1 ch) (track 1, id 0x1)
[22:39:37]      + samplerate: 48000 Hz
[22:39:37]    + FLAC Passthru
[22:39:37]  * audio track 2
[22:39:37]    + decoder: English (DTS-ES) (6.1 ch) (track 2, id 0x2)
[22:39:37]      + bitrate: 768 kbps, samplerate: 48000 Hz
[22:39:37]    + DTS Passthru
[22:39:37]  * audio track 3
[22:39:37]    + decoder: English (Vorbis) (2.0 ch) (track 3, id 0x3)
[22:39:37]      + samplerate: 48000 Hz
[22:39:37]    + mixdown: Stereo
[22:39:37]    + dither: none
[22:39:37]    + encoder: AC3 (libavcodec)
[22:39:37]      + bitrate: 224 kbps, samplerate: 48000 Hz
[22:39:37] sync: expecting 124856 video frames
[22:39:37] encavcodecInit: H.265 (AMD VCE)
[22:39:37] encavcodec: encoding at QP 20.00
[22:39:37] encavcodec: encoding with stored aspect 1/1
[22:39:37] sync: first pts video is 0
[22:39:37] sync: "00:00:00.000" (1) at frame 1 time 0
[22:39:37] sync: first pts audio 0x2 is 0
[22:39:37] sync: first pts audio 0x3 is 2070
[22:39:37] sync: first pts audio 0x1 is 0
[22:39:50] sync: "The Human Condition" (2) at frame 1877 time 7042035
[22:39:50] sync: first pts subtitle 0x4 is 7047000
[22:39:50] sync: first pts subtitle 0x5 is 7047000
[22:39:50] sync: first pts subtitle 0x6 is 7047000
[22:39:50] sync: first pts subtitle 0x8 is 7047000
[22:39:50] sync: first pts subtitle 0x9 is 7059060
[22:39:50] sync: first pts subtitle 0x7 is 7080030
[22:40:47] sync: "SEELE's Plan" (3) at frame 10086 time 37856568
[22:41:01] sync: "Loyalties" (4) at frame 12047 time 45217672
[22:41:40] sync: "Defensive Preparations" (5) at frame 17413 time 65360295
[22:41:54] sync: "Dogs of War" (6) at frame 19072 time 71587766
[22:43:44] sync: "Asuka's Awakening" (7) at frame 34488 time 129455576
[22:43:47] sync: "Unit 02 Strikes" (8) at frame 34925 time 131095965
[22:44:49] sync: "Salvation and Sacrifice" (9) at frame 43164 time 162023111
[22:45:28] sync: "All or Nothing" (10) at frame 48461 time 181906725
[22:46:07] sync: "Requiem" (11) at frame 53497 time 200810610

Things I've Tried

  • Switching from variable framerate to constant framerate. The log above is from constant framerate.

  • Removing spaces in the file name

  • Disabling all interlacing detection, decomb etc

  • Disabling f.lux (I believe the AMD driver 19.8.1 has issues with f.lux)

@UnicornsOnLSD

This comment has been minimized.

Copy link
Author

commented Aug 14, 2019

Here is the variable frame rate log:

HandBrake 1.2.2 (2019022300)
OS: Microsoft Windows NT 10.0.18362.0
CPU: Intel(R) Core(TM) i5-6600K CPU @ 3.50GHz
Ram: 16327 MB, 
GPU Information:
  AMD Radeon RX 5700 XT - 26.20.13001.29010
Screen: 1920x1080
Temp Dir: C:\Users\James\AppData\Local\Temp\
Install Dir: D:\Program Files\HandBrake
Data Dir: C:\Users\James\AppData\Roaming\HandBrake

-------------------------------------------


# Starting Encode ...

[22:21:15] hb_init: starting libhb thread
[22:21:15] 1 job(s) to process
[22:21:15] json job:
{
  "Audio": {
    "AudioList": [
      {
        "DRC": 0.0,
        "Encoder": "copy",
        "Gain": 0.0,
        "Mixdown": -1,
        "NormalizeMixLevel": false,
        "Samplerate": 0,
        "Track": 0,
        "DitherMethod": 0
      },
      {
        "DRC": 0.0,
        "Encoder": "copy",
        "Gain": 0.0,
        "Mixdown": -1,
        "NormalizeMixLevel": false,
        "Samplerate": 0,
        "Track": 1,
        "DitherMethod": 0
      },
      {
        "DRC": 0.0,
        "Encoder": "ac3",
        "Gain": 0.0,
        "Mixdown": -1,
        "NormalizeMixLevel": false,
        "Samplerate": 0,
        "Track": 2,
        "DitherMethod": 0
      }
    ],
    "CopyMask": [
      "copy:aac",
      "copy:ac3",
      "copy:dtshd",
      "copy:dts",
      "copy:eac3",
      "copy:flac",
      "copy:mp3",
      "copy:truehd"
    ],
    "FallbackEncoder": "ac3"
  },
  "Destination": {
    "ChapterList": [
      {
        "Name": "00:00:00.000"
      },
      {
        "Name": "The Human Condition"
      },
      {
        "Name": "SEELE's Plan"
      },
      {
        "Name": "Loyalties"
      },
      {
        "Name": "Defensive Preparations"
      },
      {
        "Name": "Dogs of War"
      },
      {
        "Name": "Asuka's Awakening"
      },
      {
        "Name": "Unit 02 Strikes"
      },
      {
        "Name": "Salvation and Sacrifice"
      },
      {
        "Name": "All or Nothing"
      },
      {
        "Name": "Requiem"
      },
      {
        "Name": "Thanatos -If I Can't Be Yours-"
      },
      {
        "Name": "\"Death is an Angel with Two Faces\""
      },
      {
        "Name": "Lilith"
      },
      {
        "Name": "Destruction..."
      },
      {
        "Name": "...Breeds Creation"
      },
      {
        "Name": "Anyone Would Do"
      },
      {
        "Name": "Pathetic"
      },
      {
        "Name": "This Mortal Coil"
      },
      {
        "Name": "Reflections"
      },
      {
        "Name": "Genesis"
      },
      {
        "Name": "Goodbye"
      }
    ],
    "ChapterMarkers": true,
    "AlignAVStart": false,
    "File": "D:\\Videos\\Neon.Genesis.Evangelion-The.End.of.Evangelion.1997.1080p.Remux.BluRay.H265convertedQP20.mkv",
    "Mp4Options": {
      "IpodAtom": false,
      "Mp4Optimize": false
    },
    "Mux": "mkv"
  },
  "Filters": {
    "FilterList": [
      {
        "ID": 11,
        "Settings": {
          "crop-bottom": "0",
          "crop-left": "0",
          "crop-right": "0",
          "crop-top": "0",
          "height": "1080",
          "width": "1920"
        }
      },
      {
        "ID": 6,
        "Settings": {
          "mode": "0"
        }
      }
    ]
  },
  "PAR": {
    "Num": 1,
    "Den": 1
  },
  "Metadata": {},
  "SequenceID": 0,
  "Source": {
    "Angle": 1,
    "Range": {
      "Type": "chapter",
      "Start": 1,
      "End": 22
    },
    "Title": 1,
    "Path": "D:\\Downloads\\Neon.Genesis.Evangelion-The.End.of.Evangelion.1997.1080p.Remux.BluRay.AVC.FLAC 5.1-oddset.mkv"
  },
  "Subtitle": {
    "Search": {
      "Burn": false,
      "Default": false,
      "Enable": false,
      "Forced": false
    },
    "SubtitleList": [
      {
        "Burn": false,
        "Default": false,
        "Forced": false,
        "ID": 1,
        "Offset": 0,
        "Track": 0
      },
      {
        "Burn": false,
        "Default": false,
        "Forced": false,
        "ID": 2,
        "Offset": 0,
        "Track": 1
      },
      {
        "Burn": false,
        "Default": false,
        "Forced": false,
        "ID": 3,
        "Offset": 0,
        "Track": 2
      },
      {
        "Burn": false,
        "Default": false,
        "Forced": false,
        "ID": 4,
        "Offset": 0,
        "Track": 3
      },
      {
        "Burn": false,
        "Default": false,
        "Forced": false,
        "ID": 5,
        "Offset": 0,
        "Track": 4
      },
      {
        "Burn": false,
        "Default": false,
        "Forced": false,
        "ID": 6,
        "Offset": 0,
        "Track": 5
      }
    ]
  },
  "Video": {
    "Encoder": "vce_h265",
    "Level": "auto",
    "TwoPass": false,
    "Turbo": false,
    "ColorMatrixCode": 0,
    "Options": "",
    "Preset": "quality",
    "Profile": "main",
    "Quality": 20.0,
    "QSV": {
      "Decode": false,
      "AsyncDepth": 0
    }
  }
}
[22:21:15] CPU: Intel(R) Core(TM) i5-6600K CPU @ 3.50GHz
[22:21:15]  - Intel microarchitecture Skylake
[22:21:15]  - logical processor count: 4
[22:21:15] Intel Quick Sync Video support: no
[22:21:15] hb_scan: path=D:\Downloads\Neon.Genesis.Evangelion-The.End.of.Evangelion.1997.1080p.Remux.BluRay.AVC.FLAC 5.1-oddset.mkv, title_index=1
udfread ERROR: ECMA 167 Volume Recognition failed
src/libbluray/disc/disc.c:323: failed opening UDF image D:\Downloads\Neon.Genesis.Evangelion-The.End.of.Evangelion.1997.1080p.Remux.BluRay.AVC.FLAC 5.1-oddset.mkv
src/libbluray/disc/disc.c:424: error opening file BDMV\index.bdmv
src/libbluray/disc/disc.c:424: error opening file BDMV\BACKUP\index.bdmv
[22:21:15] bd: not a bd - trying as a stream/file instead
libdvdnav: Using dvdnav version 6.0.0
libdvdread: Encrypted DVD support unavailable.
libdvdread:DVDOpenFileUDF:UDFFindFile /VIDEO_TS/VIDEO_TS.IFO failed
libdvdread:DVDOpenFileUDF:UDFFindFile /VIDEO_TS/VIDEO_TS.BUP failed
libdvdread: Can't open file VIDEO_TS.IFO.
libdvdnav: vm: failed to read VIDEO_TS.IFO
[22:21:15] dvd: not a dvd - trying as a stream/file instead
Input #0, matroska,webm, from 'D:\Downloads\Neon.Genesis.Evangelion-The.End.of.Evangelion.1997.1080p.Remux.BluRay.AVC.FLAC 5.1-oddset.mkv':
  Metadata:
    title           : The End of Evangelion (1997)
    encoder         : libebml v1.3.1 + libmatroska v1.4.2
    creation_time   : 2015-09-02T00:19:02.000000Z
  Duration: 01:26:47.54, start: 0.000000, bitrate: 33296 kb/s
    Chapter #0:0: start 0.000000, end 78.162000
    Metadata:
      title           : 00:00:00.000
    Chapter #0:1: start 78.162000, end 420.546000
    Metadata:
      title           : The Human Condition
    Chapter #0:2: start 420.546000, end 502.419000
    Metadata:
      title           : SEELE's Plan
    Chapter #0:3: start 502.419000, end 726.101000
    Metadata:
      title           : Loyalties
    Chapter #0:4: start 726.101000, end 795.420000
    Metadata:
      title           : Defensive Preparations
    Chapter #0:5: start 795.420000, end 1438.271000
    Metadata:
      title           : Dogs of War
    Chapter #0:6: start 1438.271000, end 1456.622000
    Metadata:
      title           : Asuka's Awakening
    Chapter #0:7: start 1456.622000, end 1800.257000
    Metadata:
      title           : Unit 02 Strikes
    Chapter #0:8: start 1800.257000, end 2021.186000
    Metadata:
      title           : Salvation and Sacrifice
    Chapter #0:9: start 2021.186000, end 2231.229000
    Metadata:
      title           : All or Nothing
    Chapter #0:10: start 2231.229000, end 2515.847000
    Metadata:
      title           : Requiem
    Chapter #0:11: start 2515.847000, end 2810.225000
    Metadata:
      title           : Thanatos -If I Can't Be Yours-
    Chapter #0:12: start 2810.225000, end 3193.608000
    Metadata:
      title           : "Death is an Angel with Two Faces"
    Chapter #0:13: start 3193.608000, end 3466.463000
    Metadata:
      title           : Lilith
    Chapter #0:14: start 3466.463000, end 3595.426000
    Metadata:
      title           : Destruction...
    Chapter #0:15: start 3595.426000, end 3727.599000
    Metadata:
      title           : ...Breeds Creation
    Chapter #0:16: start 3727.599000, end 3813.685000
    Metadata:
      title           : Anyone Would Do
    Chapter #0:17: start 3813.685000, end 3899.521000
    Metadata:
      title           : Pathetic
    Chapter #0:18: start 3899.521000, end 4374.037000
    Metadata:
      title           : This Mortal Coil
    Chapter #0:19: start 4374.037000, end 4553.549000
    Metadata:
      title           : Reflections
    Chapter #0:20: start 4553.549000, end 4926.922000
    Metadata:
      title           : Genesis
    Chapter #0:21: start 4926.922000, end 5207.542000
    Metadata:
      title           : Goodbye
    Stream #0:0(jpn): Video: h264 (High), yuv420p(tv, bt709, progressive), 1920x1080 [SAR 1:1 DAR 16:9], 23.98 fps, 23.98 tbr, 1k tbn, 47.95 tbc (default)
    Metadata:
      title           : @ 31013 Kbps
      BPS             : 30843923
      BPS-eng         : 30843923
      DURATION        : 01:26:47.202000000
      DURATION-eng    : 01:26:47.202000000
      NUMBER_OF_FRAMES: 124848
      NUMBER_OF_FRAMES-eng: 124848
      NUMBER_OF_BYTES : 20076317804
      NUMBER_OF_BYTES-eng: 20076317804
      _STATISTICS_WRITING_APP: mkvmerge v8.3.0 ('Over the Horizon') 64bit
      _STATISTICS_WRITING_APP-eng: mkvmerge v8.3.0 ('Over the Horizon') 64bit
      _STATISTICS_WRITING_DATE_UTC: 2015-09-02 00:19:02
      _STATISTICS_WRITING_DATE_UTC-eng: 2015-09-02 00:19:02
      _STATISTICS_TAGS: BPS DURATION NUMBER_OF_FRAMES NUMBER_OF_BYTES
      _STATISTICS_TAGS-eng: BPS DURATION NUMBER_OF_FRAMES NUMBER_OF_BYTES
    Stream #0:1(jpn): Audio: flac, 48000 Hz, 5.1(side), s16 (default)
    Metadata:
      title           : @ 1581 Kbps
      BPS             : 1580808
      BPS-eng         : 1580808
      DURATION        : 01:26:47.206000000
      DURATION-eng    : 01:26:47.206000000
      NUMBER_OF_FRAMES: 61022
      NUMBER_OF_FRAMES-eng: 61022
      NUMBER_OF_BYTES : 1028949395
      NUMBER_OF_BYTES-eng: 1028949395
      _STATISTICS_WRITING_APP: mkvmerge v8.3.0 ('Over the Horizon') 64bit
      _STATISTICS_WRITING_APP-eng: mkvmerge v8.3.0 ('Over the Horizon') 64bit
      _STATISTICS_WRITING_DATE_UTC: 2015-09-02 00:19:02
      _STATISTICS_WRITING_DATE_UTC-eng: 2015-09-02 00:19:02
      _STATISTICS_TAGS: BPS DURATION NUMBER_OF_FRAMES NUMBER_OF_BYTES
      _STATISTICS_TAGS-eng: BPS DURATION NUMBER_OF_FRAMES NUMBER_OF_BYTES
    Stream #0:2(eng): Audio: dts (DTS-ES), 48000 Hz, 6.1, fltp, 768 kb/s
    Metadata:
      title           : Manga Entertainment
      BPS             : 754499
      BPS-eng         : 754499
      DURATION        : 01:26:46.155000000
      DURATION-eng    : 01:26:46.155000000
      NUMBER_OF_FRAMES: 488077
      NUMBER_OF_FRAMES-eng: 488077
      NUMBER_OF_BYTES : 491005462
      NUMBER_OF_BYTES-eng: 491005462
      _STATISTICS_WRITING_APP: mkvmerge v8.3.0 ('Over the Horizon') 64bit
      _STATISTICS_WRITING_APP-eng: mkvmerge v8.3.0 ('Over the Horizon') 64bit
      _STATISTICS_WRITING_DATE_UTC: 2015-09-02 00:19:02
      _STATISTICS_WRITING_DATE_UTC-eng: 2015-09-02 00:19:02
      _STATISTICS_TAGS: BPS DURATION NUMBER_OF_FRAMES NUMBER_OF_BYTES
      _STATISTICS_TAGS-eng: BPS DURATION NUMBER_OF_FRAMES NUMBER_OF_BYTES
    Stream #0:3(eng): Audio: vorbis, 48000 Hz, stereo, fltp
    Metadata:
      title           : Dubbing Crew's Commentary
      BPS             : 101349
      BPS-eng         : 101349
      DURATION        : 01:26:47.530000000
      DURATION-eng    : 01:26:47.530000000
      NUMBER_OF_FRAMES: 398583
      NUMBER_OF_FRAMES-eng: 398583
      NUMBER_OF_BYTES : 65972667
      NUMBER_OF_BYTES-eng: 65972667
      _STATISTICS_WRITING_APP: mkvmerge v8.3.0 ('Over the Horizon') 64bit
      _STATISTICS_WRITING_APP-eng: mkvmerge v8.3.0 ('Over the Horizon') 64bit
      _STATISTICS_WRITING_DATE_UTC: 2015-09-02 00:19:02
      _STATISTICS_WRITING_DATE_UTC-eng: 2015-09-02 00:19:02
      _STATISTICS_TAGS: BPS DURATION NUMBER_OF_FRAMES NUMBER_OF_BYTES
      _STATISTICS_TAGS-eng: BPS DURATION NUMBER_OF_FRAMES NUMBER_OF_BYTES
    Stream #0:4(eng): Subtitle: ass (default)
    Metadata:
      title           : English Subtitles, Styled
      BPS             : 107
      BPS-eng         : 107
      DURATION        : 01:25:27.880000000
      DURATION-eng    : 01:25:27.880000000
      NUMBER_OF_FRAMES: 1035
      NUMBER_OF_FRAMES-eng: 1035
      NUMBER_OF_BYTES : 69051
      NUMBER_OF_BYTES-eng: 69051
      _STATISTICS_WRITING_APP: mkvmerge v8.3.0 ('Over the Horizon') 64bit
      _STATISTICS_WRITING_APP-eng: mkvmerge v8.3.0 ('Over the Horizon') 64bit
      _STATISTICS_WRITING_DATE_UTC: 2015-09-02 00:19:02
      _STATISTICS_WRITING_DATE_UTC-eng: 2015-09-02 00:19:02
      _STATISTICS_TAGS: BPS DURATION NUMBER_OF_FRAMES NUMBER_OF_BYTES
      _STATISTICS_TAGS-eng: BPS DURATION NUMBER_OF_FRAMES NUMBER_OF_BYTES
    Stream #0:5(eng): Subtitle: ass
    Metadata:
      title           : Songs + Signs, Styled
      BPS             : 16
      BPS-eng         : 16
      DURATION        : 01:25:27.880000000
      DURATION-eng    : 01:25:27.880000000
      NUMBER_OF_FRAMES: 146
      NUMBER_OF_FRAMES-eng: 146
      NUMBER_OF_BYTES : 10680
      NUMBER_OF_BYTES-eng: 10680
      _STATISTICS_WRITING_APP: mkvmerge v8.3.0 ('Over the Horizon') 64bit
      _STATISTICS_WRITING_APP-eng: mkvmerge v8.3.0 ('Over the Horizon') 64bit
      _STATISTICS_WRITING_DATE_UTC: 2015-09-02 00:19:02
      _STATISTICS_WRITING_DATE_UTC-eng: 2015-09-02 00:19:02
      _STATISTICS_TAGS: BPS DURATION NUMBER_OF_FRAMES NUMBER_OF_BYTES
      _STATISTICS_TAGS-eng: BPS DURATION NUMBER_OF_FRAMES NUMBER_OF_BYTES
    Stream #0:6(eng): Subtitle: subrip
    Metadata:
      title           : Songs + Signs, Not Styled
      BPS             : 3
      BPS-eng         : 3
      DURATION        : 01:25:27.880000000
      DURATION-eng    : 01:25:27.880000000
      NUMBER_OF_FRAMES: 66
      NUMBER_OF_FRAMES-eng: 66
      NUMBER_OF_BYTES : 2234
      NUMBER_OF_BYTES-eng: 2234
      _STATISTICS_WRITING_APP: mkvmerge v8.3.0 ('Over the Horizon') 64bit
      _STATISTICS_WRITING_APP-eng: mkvmerge v8.3.0 ('Over the Horizon') 64bit
      _STATISTICS_WRITING_DATE_UTC: 2015-09-02 00:19:02
      _STATISTICS_WRITING_DATE_UTC-eng: 2015-09-02 00:19:02
      _STATISTICS_TAGS: BPS DURATION NUMBER_OF_FRAMES NUMBER_OF_BYTES
      _STATISTICS_TAGS-eng: BPS DURATION NUMBER_OF_FRAMES NUMBER_OF_BYTES
    Stream #0:7(eng): Subtitle: subrip
    Metadata:
      title           : Signs Only, Not Styled
      BPS             : 2
      BPS-eng         : 2
      DURATION        : 01:25:28.293000000
      DURATION-eng    : 01:25:28.293000000
      NUMBER_OF_FRAMES: 50
      NUMBER_OF_FRAMES-eng: 50
      NUMBER_OF_BYTES : 1559
      NUMBER_OF_BYTES-eng: 1559
      _STATISTICS_WRITING_APP: mkvmerge v8.3.0 ('Over the Horizon') 64bit
      _STATISTICS_WRITING_APP-eng: mkvmerge v8.3.0 ('Over the Horizon') 64bit
      _STATISTICS_WRITING_DATE_UTC: 2015-09-02 00:19:02
      _STATISTICS_WRITING_DATE_UTC-eng: 2015-09-02 00:19:02
      _STATISTICS_TAGS: BPS DURATION NUMBER_OF_FRAMES NUMBER_OF_BYTES
      _STATISTICS_TAGS-eng: BPS DURATION NUMBER_OF_FRAMES NUMBER_OF_BYTES
    Stream #0:8(eng): Subtitle: ass
    Metadata:
      title           : Not Styled
      BPS             : 15
      BPS-eng         : 15
      DURATION        : 01:25:27.880000000
      DURATION-eng    : 01:25:27.880000000
      NUMBER_OF_FRAMES: 146
      NUMBER_OF_FRAMES-eng: 146
      NUMBER_OF_BYTES : 9788
      NUMBER_OF_BYTES-eng: 9788
      _STATISTICS_WRITING_APP: mkvmerge v8.3.0 ('Over the Horizon') 64bit
      _STATISTICS_WRITING_APP-eng: mkvmerge v8.3.0 ('Over the Horizon') 64bit
      _STATISTICS_WRITING_DATE_UTC: 2015-09-02 00:19:02
      _STATISTICS_WRITING_DATE_UTC-eng: 2015-09-02 00:19:02
      _STATISTICS_TAGS: BPS DURATION NUMBER_OF_FRAMES NUMBER_OF_BYTES
      _STATISTICS_TAGS-eng: BPS DURATION NUMBER_OF_FRAMES NUMBER_OF_BYTES
    Stream #0:9(ger): Subtitle: subrip
    Metadata:
      title           : Not Styled
      BPS             : 51
      BPS-eng         : 51
      DURATION        : 01:25:28.720000000
      DURATION-eng    : 01:25:28.720000000
      NUMBER_OF_FRAMES: 910
      NUMBER_OF_FRAMES-eng: 910
      NUMBER_OF_BYTES : 33283
      NUMBER_OF_BYTES-eng: 33283
      _STATISTICS_WRITING_APP: mkvmerge v8.3.0 ('Over the Horizon') 64bit
      _STATISTICS_WRITING_APP-eng: mkvmerge v8.3.0 ('Over the Horizon') 64bit
      _STATISTICS_WRITING_DATE_UTC: 2015-09-02 00:19:02
      _STATISTICS_WRITING_DATE_UTC-eng: 2015-09-02 00:19:02
      _STATISTICS_TAGS: BPS DURATION NUMBER_OF_FRAMES NUMBER_OF_BYTES
      _STATISTICS_TAGS-eng: BPS DURATION NUMBER_OF_FRAMES NUMBER_OF_BYTES
[22:21:15] scan: decoding previews for title 1
[22:21:16] scan: audio 0x1: flac, rate=48000Hz, bitrate=1 ??? (FLAC) (5.1 ch)
[22:21:16] scan: audio 0x2: dca, rate=48000Hz, bitrate=768000 English (DTS-ES) (6.1 ch)
[22:21:16] scan: audio 0x3: vorbis, rate=48000Hz, bitrate=1 English (Vorbis) (2.0 ch)
[22:21:17] scan: 10 previews, 1920x1080, 23.976 fps, autocrop = 0/0/0/0, aspect 16:9, PAR 1:1
[22:21:17] scan: supported video decoders: avcodec qsv
[22:21:17] libhb: scan thread found 1 valid title(s)
[22:21:17] starting job
[22:21:17] Auto Passthru: allowed codecs are AAC, AC3, E-AC3, TrueHD, DTS, DTS-HD, MP3, FLAC
[22:21:17] Auto Passthru: fallback is AC3
[22:21:17] Auto Passthru: using FLAC Passthru for track 1
[22:21:17] Auto Passthru: using DTS Passthru for track 2
[22:21:17] work: mixdown not specified, track 3 setting mixdown Stereo
[22:21:17] work: bitrate not specified, track 3 setting bitrate 224 Kbps
[22:21:17] job configuration:
[22:21:17]  * source
[22:21:17]    + D:\Downloads\Neon.Genesis.Evangelion-The.End.of.Evangelion.1997.1080p.Remux.BluRay.AVC.FLAC 5.1-oddset.mkv
[22:21:17]    + title 1, chapter(s) 1 to 22
[22:21:17]    + container: matroska,webm
[22:21:17]    + data rate: 33296 kbps
[22:21:17]  * destination
[22:21:17]    + D:\Videos\Neon.Genesis.Evangelion-The.End.of.Evangelion.1997.1080p.Remux.BluRay.H265convertedQP20.mkv
[22:21:17]    + container: Matroska (libavformat)
[22:21:17]      + chapter markers
[22:21:17]  * video track
[22:21:17]    + decoder: h264
[22:21:17]    + filters
[22:21:17]      + Framerate Shaper (mode=0)
[22:21:17]        + frame rate: same as source (around 23.976 fps)
[22:21:17]      + Crop and Scale (width=1920:height=1080:crop-top=0:crop-bottom=0:crop-left=0:crop-right=0)
[22:21:17]        + source: 1920 * 1080, crop (0/0/0/0): 1920 * 1080, scale: 1920 * 1080
[22:21:17]    + Output geometry
[22:21:17]      + storage dimensions: 1920 x 1080
[22:21:17]      + pixel aspect ratio: 1 : 1
[22:21:17]      + display dimensions: 1920 x 1080
[22:21:17]    + encoder: H.265 (AMD VCE)
[22:21:17]      + preset:  quality
[22:21:17]      + profile: main
[22:21:17]      + level:   auto
[22:21:17]      + quality: 20.00 (QP)
[22:21:17]      + color profile: 1-1-1
[22:21:17]  * subtitle track 1, English [SSA] (track 0, id 0x4, Text) -> Passthrough
[22:21:17]  * subtitle track 2, English [SSA] (track 1, id 0x5, Text) -> Passthrough
[22:21:17]  * subtitle track 3, English [UTF-8] (track 2, id 0x6, Text) -> Passthrough
[22:21:17]  * subtitle track 4, English [UTF-8] (track 3, id 0x7, Text) -> Passthrough
[22:21:17]  * subtitle track 5, English [SSA] (track 4, id 0x8, Text) -> Passthrough
[22:21:17]  * subtitle track 6, Deutsch [UTF-8] (track 5, id 0x9, Text) -> Passthrough
[22:21:17]  * audio track 1
[22:21:17]    + decoder: ??? (FLAC) (5.1 ch) (track 1, id 0x1)
[22:21:17]      + samplerate: 48000 Hz
[22:21:17]    + FLAC Passthru
[22:21:17]  * audio track 2
[22:21:17]    + decoder: English (DTS-ES) (6.1 ch) (track 2, id 0x2)
[22:21:17]      + bitrate: 768 kbps, samplerate: 48000 Hz
[22:21:17]    + DTS Passthru
[22:21:17]  * audio track 3
[22:21:17]    + decoder: English (Vorbis) (2.0 ch) (track 3, id 0x3)
[22:21:17]      + samplerate: 48000 Hz
[22:21:17]    + mixdown: Stereo
[22:21:17]    + dither: none
[22:21:17]    + encoder: AC3 (libavcodec)
[22:21:17]      + bitrate: 224 kbps, samplerate: 48000 Hz
[22:21:17] sync: expecting 124856 video frames
[22:21:17] encavcodecInit: H.265 (AMD VCE)
[22:21:17] encavcodec: encoding at QP 20.00
[22:21:17] encavcodec: encoding with stored aspect 1/1
[22:21:17] sync: first pts video is 0
[22:21:17] sync: "00:00:00.000" (1) at frame 1 time 0
[22:21:17] sync: first pts audio 0x2 is 0
[22:21:17] sync: first pts audio 0x3 is 2070
[22:21:17] sync: first pts audio 0x1 is 0
[22:21:30] sync: "The Human Condition" (2) at frame 1877 time 7042035
[22:21:30] sync: first pts subtitle 0x4 is 7047000
[22:21:30] sync: first pts subtitle 0x5 is 7047000
[22:21:30] sync: first pts subtitle 0x6 is 7047000
[22:21:30] sync: first pts subtitle 0x8 is 7047000
[22:21:30] sync: first pts subtitle 0x9 is 7059060
[22:21:30] sync: first pts subtitle 0x7 is 7080030
[22:22:33] sync: "SEELE's Plan" (3) at frame 10086 time 37856568
[22:22:48] sync: "Loyalties" (4) at frame 12047 time 45217672
[22:23:29] sync: "Defensive Preparations" (5) at frame 17413 time 65360295
[22:23:40] sync: "Dogs of War" (6) at frame 19072 time 71587766
[22:25:37] sync: "Asuka's Awakening" (7) at frame 34488 time 129455576
[22:25:40] sync: "Unit 02 Strikes" (8) at frame 34925 time 131095965
[22:26:45] sync: "Salvation and Sacrifice" (9) at frame 43164 time 162023111
[22:27:26] sync: "All or Nothing" (10) at frame 48461 time 181906725
[22:28:06] sync: "Requiem" (11) at frame 53497 time 200810610
[22:28:54] sync: "Thanatos -If I Can't Be Yours-" (12) at frame 60321 time 226426200
[22:28:56] sync: subtitle 0x7 time went backwards 0 ms, PTS 226901160
[22:28:56] sync: subtitle 0x7 time went backwards 0 ms, PTS 226901160
[22:28:59] sync: subtitle 0x7 time went backwards 0 ms, PTS 227855160
[22:28:59] sync: subtitle 0x7 time went backwards 0 ms, PTS 227855160
[22:29:01] sync: subtitle 0x7 time went backwards 0 ms, PTS 228809160
[22:29:50] sync: ""Death is an Angel with Two Faces"" (13) at frame 67382 time 252931428
[22:31:03] sync: "Lilith" (14) at frame 76573 time 287432145
@sr55

This comment has been minimized.

Copy link
Contributor

commented Aug 15, 2019

Locking for community rules violation. 2c.

@sr55 sr55 closed this Aug 15, 2019

@HandBrake HandBrake locked and limited conversation to collaborators Aug 15, 2019

Sign up for free to subscribe to this conversation on GitHub. Already have an account? Sign in.
2 participants
You can’t perform that action at this time.