Skip to content
New issue

Have a question about this project? Sign up for a free GitHub account to open an issue and contact its maintainers and the community.

By clicking “Sign up for GitHub”, you agree to our terms of service and privacy statement. We’ll occasionally send you account related emails.

Already on GitHub? Sign in to your account

AVI/WAV: test of truncated file #352

Merged
merged 1 commit into from Jan 6, 2017

Conversation

Projects
None yet
1 participant
@JeromeMartinez
Copy link
Member

JeromeMartinez commented Jan 6, 2017

Responding to https://twitter.com/bitsgalore/status/816718028683546624
http://openpreservation.org/blog/2017/01/04/breaking-waves-and-some-flacs/
About the WAV truncate detection.

Check the new "IsTruncated: Yes" line:

General
Complete name : C:\Users\jerome\Downloads\frogs-01.wav
Format : Wave
File size : 1.96 MiB
Duration : 11 s 626 ms
Overall bit rate mode : Constant
Overall bit rate : 1 411 kb/s
Track name : untitled
Writing application : Lavf57.56.100

Audio
Format : PCM
Format settings, Endianness : Little
Format settings, Sign : Signed
Codec ID : 1
Duration : 11 s 626 ms
Bit rate mode : Constant
Bit rate : 1 411.2 kb/s
Channel(s) : 2 channels
Sampling rate : 44.1 kHz
Bit depth : 16 bits
Stream size : 1.96 MiB (100%)

General
Complete name : C:\Users\jerome\Downloads\frogs-01-byte-missing-at-offset-811537.wav
Format : Wave
File size : 1.96 MiB
Duration : 11 s 626 ms
Overall bit rate mode : Constant
Overall bit rate : 1 411 kb/s
Track name : untitled
Writing application : Lavf57.56.100
IsTruncated : Yes

Audio
Format : PCM
Format settings, Endianness : Little
Format settings, Sign : Signed
Codec ID : 1
Duration : 11 s 626 ms
Bit rate mode : Constant
Bit rate : 1 411.2 kb/s
Channel(s) : 2 channels
Sampling rate : 44.1 kHz
Bit depth : 16 bits
Stream size : 1.96 MiB (100%)

General
Complete name : C:\Users\jerome\Downloads\frogs-01-last-2032-bytes-missing.wav
Format : Wave
File size : 1.95 MiB
Duration : 11 s 615 ms
Overall bit rate mode : Constant
Overall bit rate : 1 411 kb/s
Track name : untitled
Writing application : Lavf57.56.100
IsTruncated : Yes

Audio
Format : PCM
Format settings, Endianness : Little
Format settings, Sign : Signed
Codec ID : 1
Duration : 11 s 615 ms
Bit rate mode : Constant
Bit rate : 1 411.2 kb/s
Channel(s) : 2 channels
Sampling rate : 44.1 kHz
Bit depth : 16 bits
Stream size : 1.95 MiB (100%)

General
Complete name : C:\Users\jerome\Downloads\frogs-01-last-byte-missing.wav
Format : Wave
File size : 1.96 MiB
Duration : 11 s 626 ms
Overall bit rate mode : Constant
Overall bit rate : 1 411 kb/s
Track name : untitled
Writing application : Lavf57.56.100
IsTruncated : Yes

Audio
Format : PCM
Format settings, Endianness : Little
Format settings, Sign : Signed
Codec ID : 1
Duration : 11 s 626 ms
Bit rate mode : Constant
Bit rate : 1 411.2 kb/s
Channel(s) : 2 channels
Sampling rate : 44.1 kHz
Bit depth : 16 bits
Stream size : 1.96 MiB (100%)

@JeromeMartinez JeromeMartinez merged commit 49305b2 into MediaArea:master Jan 6, 2017

1 check passed

continuous-integration/travis-ci/pr The Travis CI build passed
Details

@JeromeMartinez JeromeMartinez deleted the JeromeMartinez:AVI_WAV_Truncated branch Jan 20, 2017

Sign up for free to join this conversation on GitHub. Already have an account? Sign in to comment
You can’t perform that action at this time.