This repository has been archived by the owner. It is now read-only.

Doesn't recognize Vorbis audio file in an MP4 file #2093

Closed
fireattack opened this Issue Sep 10, 2017 · 4 comments

Comments

2 participants
@fireattack

fireattack commented Sep 10, 2017

File info:

General
Complete name                  : H:\result_final.mp4
Format                         : MPEG-4
Format profile                 : Base Media
Codec ID                       : isom (isom/iso2/avc1/mp41)
File size                      : 489 MiB
Duration                       : 53 min 57 s
Overall bit rate               : 1 268 kb/s
Writing application            : Lavf57.72.101

Video
ID                             : 1
Format                         : AVC
Format/Info                    : Advanced Video Codec
Format profile                 : High@L5
Format settings, CABAC         : Yes
Format settings, ReFrames      : 8 frames
Codec ID                       : avc1
Codec ID/Info                  : Advanced Video Coding
Duration                       : 53 min 57 s
Bit rate                       : 1 091 kb/s
Width                          : 640 pixels
Height                         : 480 pixels
Display aspect ratio           : 4:3
Frame rate mode                : Constant
Frame rate                     : 29.970 (30000/1001) FPS
Color space                    : YUV
Chroma subsampling             : 4:2:0
Bit depth                      : 8 bits
Scan type                      : Progressive
Bits/(Pixel*Frame)             : 0.118
Stream size                    : 421 MiB (86%)
Writing library                : x264 core 148 r2762 90a61ec
Encoding settings              : cabac=1 / ref=8 / deblock=1:0:0 / analyse=0x3:0x133 / me=umh / subme=9 / psy=1 / psy_rd=1.00:0.00 / mixed_ref=1 / me_range=16 / chroma_me=1 / trellis=2 / 8x8dct=1 / cqm=0 / deadzone=21,11 / fast_pskip=1 / chroma_qp_offset=-2 / threads=6 / lookahead_threads=1 / sliced_threads=0 / nr=0 / decimate=1 / interlaced=0 / bluray_compat=0 / constrained_intra=0 / bframes=3 / b_pyramid=2 / b_adapt=2 / b_bias=0 / direct=3 / weightb=1 / open_gop=0 / weightp=2 / keyint=250 / keyint_min=25 / scenecut=40 / intra_refresh=0 / rc_lookahead=60 / rc=crf / mbtree=1 / crf=18.0 / qcomp=0.60 / qpmin=0 / qpmax=69 / qpstep=4 / ip_ratio=1.40 / aq=1:1.00

Audio
ID                             : 2
Format                         : Ogg
Codec ID                       : DD
Duration                       : 53 min 57 s
Bit rate mode                  : Constant
Bit rate                       : 168 kb/s
Channel(s)                     : 2 channels
Sampling rate                  : 48.0 kHz
Stream size                    : 64.9 MiB (13%)
Default                        : Yes
Alternate group                : 1

I encoded this video with ffmpeg and tried to add chapter with MKVtoolnix. But then I found the audio doesn't get recognized when I add the file, only the video:

image

@fireattack

This comment has been minimized.

Show comment
Hide comment
@fireattack

fireattack commented Sep 10, 2017

Test file:
cut2.zip

@mbunkus

This comment has been minimized.

Show comment
Hide comment
@mbunkus

mbunkus Sep 10, 2017

Owner

Vorbis in MP4 is currently not supported. I'll add support for it soonish.

Owner

mbunkus commented Sep 10, 2017

Vorbis in MP4 is currently not supported. I'll add support for it soonish.

@fireattack

This comment has been minimized.

Show comment
Hide comment
@fireattack

fireattack commented Sep 10, 2017

Thanks!

@mbunkus

This comment has been minimized.

Show comment
Hide comment
@mbunkus

mbunkus Sep 10, 2017

Owner

New pre-builds for Windows that include the new feature are up.

Owner

mbunkus commented Sep 10, 2017

New pre-builds for Windows that include the new feature are up.

Sign up for free to subscribe to this conversation on GitHub. Already have an account? Sign in.