Skip to content
This repository

[iQIYI] All video parts being deleted even if FFmpeg failed #16

Closed
soimort opened this Issue September 30, 2012 · 0 comments

1 participant

Mort Yao
Mort Yao
Owner
➜  you-get git:(master) ✗ ./you-get http://www.iqiyi.com/dianying/20120301/f38d2b66c7d0f6d3.html
Video Site: iQIYI.com
Title:      那些年,我们一起追的女孩
Type:       MPEG-2 transport stream (video/MP2T)
Size:       448.48 MB (470270488 Bytes)

Downloading 那些年,我们一起追的女孩.ts ...
 79.8% (358.1/448.5MB) [================================        ] 17/17
ffmpeg version 0.10.3 Copyright (c) 2000-2012 the FFmpeg developers
  built on May  9 2012 17:51:07 with gcc 4.7.0 20120505 (prerelease)
  configuration: --prefix=/usr --enable-libmp3lame --enable-libvorbis --enable-libxvid --enable-libx264 --enable-libvpx --enable-libtheora --enable-libgsm --enable-libspeex --enable-postproc --enable-shared --enable-x11grab --enable-libopencore_amrnb --enable-libopencore_amrwb --enable-libschroedinger --enable-libopenjpeg --enable-librtmp --enable-libpulse --enable-gpl --enable-version3 --enable-runtime-cpudetect --disable-debug --disable-static
  libavutil      51. 35.100 / 51. 35.100
  libavcodec     53. 61.100 / 53. 61.100
  libavformat    53. 32.100 / 53. 32.100
  libavdevice    53.  4.100 / 53.  4.100
  libavfilter     2. 61.100 /  2. 61.100
  libswscale      2.  1.100 /  2.  1.100
  libswresample   0.  6.100 /  0.  6.100
  libpostproc    52.  0.100 / 52.  0.100
[mpegts @ 0x1ddc3a0] max_analyze_duration 5000000 reached at 5014800
Input #0, mpegts, from 'concat:./那些年,我们一起追的女孩[00].ts|./那些年,我们一起追的女孩[01].ts|./那些年,我们一起追的女孩[02].ts|./那些年,我们一起追的女孩[03].ts|./那些年,我们一起追的女孩[04].ts|./那些年,我们一起追的女孩[05].ts|./那些年,我们一起追的女孩[06].ts|./那些年,我们一起追的女孩[07].ts|./那些年,我们一起追的女孩[08].ts|./那些年,我们一起追的女孩[09].ts|./那些年,我们一起追的女孩[10].ts|./那些年,我们一起追的女孩[11].ts|./那些年,我们一起追的女孩[12].ts|./那些年,我们一起追的女孩[13].ts|./那些年,我们一起追的女孩[14].ts|./那些年,我们一起追的女孩[15].ts|./那些年,我们一起追的女孩[16].ts|':
  Duration: 00:05:19.83, start: 0.167000, bitrate: 9391 kb/s
  Program 1 
    Metadata:
      service_name    : Qiyi Wang
      service_provider: QiYi
    Stream #0:0[0x100]: Video: h264 (High) ([27][0][0][0] / 0x001B), yuv420p, 640x272, 24 tbr, 90k tbn, 180k tbc
    Stream #0:1[0x101]: Audio: aac ([15][0][0][0] / 0x000F), 44100 Hz, 2 channels (FC), s16, 64 kb/s
[matroska @ 0x1de3a80] Error parsing AAC extradata, unable to determine samplerate.
Output #0, matroska, to './那些年,我们一起追的女孩.mkv':
  Metadata:
    encoder         : Lavf53.32.100
    Stream #0:0: Video: h264 ([27][0][0][0] / 0x001B), yuv420p, 640x272, q=2-31, 1k tbn, 90k tbc
    Stream #0:1: Audio: aac ([15][0][0][0] / 0x000F), 44100 Hz, 2 channels (FC), 64 kb/s
Stream mapping:
  Stream #0:0 -> #0:0 (copy)
  Stream #0:1 -> #0:1 (copy)
Press [q] to stop, [?] for help
[mpegts @ 0x1ddc3a0] PES packet size mismatch
[matroska @ 0x1de3a80] Application provided invalid, non monotonically increasing dts to muxer in stream 0: 86167 >= 86167
av_interleaved_write_frame(): Invalid argument

And after that only a broken .mkv file left in the directory.

Mort Yao soimort closed this issue from a commit October 09, 2012
Mort Yao fix #16 2858a59
Mort Yao soimort closed this in 2858a59 October 08, 2012
Sign up for free to join this conversation on GitHub. Already have an account? Sign in to comment
Something went wrong with that request. Please try again.